BitTorrentTracker PerecTracker.org
BitTorrentTracker PerecTracker.org
    
Регистрация  ·  Вход
 
 · 
Забыли пароль?

  • Ватиканские записи / The Vatican Tapes (Марк Невелдайн / Mark Neveldine) [2015, США, ужасы, триллер, драма, HDRip] VO (ХихиДок)

    Ответить на тему
     
    Автор Сообщение

    Light

    Создавать темы 02-Июн-2016 02:28

           

    [Цитировать]

    Ватиканские записи / The Vatican Tapes
    Страна: США
    Жанр: ужасы, триллер, драма
    Год выпуска: 2015
    Продолжительность: 01:30:52
    Перевод: Одноголосый закадровый (ХихиДок)
    Cубтитры: нет
    Режиссер: Марк Невелдайн / Mark Neveldine
    В ролях: Кэтлин Робертсон, Джимон Хонсу, Дюгрей Скотт, Майкл Пенья, Оливия Тейлор Дадли, Джон Патрик Амедори, Майкл Паре, Дэниэл Бернхард, Темина Санни, Кэс Анвар
    Описание: Мистический фильм ужасов «Ватиканские записи», начинается с обычного празднования дня рождения главной героини картины, симпатичной Анжелы Холмс. Женщине исполнилось двадцать семь лет, и праздник, кажется, удался, все гости веселятся на шумной вечеринке, а время потихоньку приближается к очереди огромного торта. Начиная резать сладость, главная героиня травмирует ножом себе палец, порез оказывается настолько большим, что её госпитализируют в ближайшую больницу. Врачи зашивают травму, но с девушкой начинают происходить странные вещи, как будто она подхватила какую-то инфекцию, но поставить диагноз не удаётся. -- Позже героиня совершает странные поступки, будто её телом кто-то руководит, а окружающие девушку люди, получают нелепые травмы, а некоторые, вообще, погибают. Понимая, что в Анжелу вселился демон, её друзья обращаются к священнику. Домыслы близких людей подтвердились, но никто из приближённых к Ватикану, не желает браться за изгнание сверхъестественной силы. Всё же находится один священник, который втайне решается помочь девушке, но при условии, что процедуру экзорцизма будут снимать на камеру. В результате, что-то пошло не так, и демонская сила, оказалась сильнее православной, что привело к трагическим последствиям.
    Доп. информация: Для зрителей старше 18 лет
    Сэмпл: http://multi-up.com/1103969
    Качество видео: HDRip
    Формат видео: AVI
    Видео: XviD 73, 720x400, (16:9), 23,976 fps, 1704 Кбит/с, 8 бит
    Аудио: Русский (AC-3, 6 ch (Front: L C R, Side: L R, LFE), 48,0 KHz, 448 Kbps)

    MediaInfo

    Общее
    Полное имя : F:\Видеофильмы\В и д е о\Ватиканские записи ( ужасы, триллер 2015г).avi
    Формат : AVI
    Формат/Информация : Audio Video Interleave
    Размер файла : 1,37 Гбайт
    Продолжительность : 1 ч. 30 м.
    Общий поток : 2161 Кбит/сек
    Программа кодирования : VirtualDubMod 1.5.10.2 (build 2540/release)
    Библиотека кодирования : VirtualDubMod build 2540/release
    Авторское право : ExKinoRay
    Видео
    Идентификатор : 0
    Формат : MPEG-4 Visual
    Профиль формата : Advanced Simple@L5
    Параметр BVOP формата : 1
    Параметр QPel формата : Нет
    Параметр GMC формата : Без точки перехода
    Параметр матрицы формата : Выборочная
    Идентификатор кодека : XVID
    Идентификатор кодека/Подсказка : XviD
    Продолжительность : 1 ч. 30 м.
    Битрейт : 1704 Кбит/сек
    Ширина : 720 пикселей
    Высота : 400 пикселей
    Соотношение сторон : 16:9
    Частота кадров : 23,976 (23976/1000) кадра/сек
    Цветовое пространство : YUV
    Субдискретизация насыщенности : 4:2:0
    Битовая глубина : 8 бит
    Тип развёртки : Прогрессивная
    Метод сжатия : С потерями
    Бит/(Пиксели*Кадры) : 0.247
    Размер потока : 1,08 Гбайт (79%)
    Библиотека кодирования : XviD 73
    Аудио
    Идентификатор : 1
    Формат : AC-3
    Формат/Информация : Audio Coding 3
    Расширение режима : CM (complete main)
    Параметр Endianness формата : Big
    Идентификатор кодека : 2000
    Продолжительность : 1 ч. 30 м.
    Вид битрейта : Постоянный
    Битрейт : 448 Кбит/сек
    Каналы : 6 каналов
    Расположение каналов : Front: L C R, Side: L R, LFE
    Частота : 48,0 КГц
    Частота кадров : 31,250 кадров/сек (1536 spf)
    Метод сжатия : С потерями
    Размер потока : 291 Мбайт (21%)
    Выравнивание : Разделение по промежуткам
    Продолжительность промежутка : 42 мс. (1,00 видеокадр)
    Время предзагрузки промежутка : 500 мс.

    Скриншот c названием фильма

    Скриншоты

    Скачать .torrent

    Скачать торрент-файл бесплатно и на максимальной скорости!

    Как скачивать? · Что такое торрент? · Рейтинг и ограничения

    !ВНИМАНИЕ!
    Сайт не распространяет и не хранит электронные версии произведений, а занимается лишь лишь предоставлением доступа к создаваемому пользователями каталогу ссылок на торрент-файлы, которые содержат только списки хеш-сумм, убедительная просьба с жалобами обращаться напрямую к пользователю. Файлы для обмена на трекере предоставлены пользователями сайта, и администрация не несёт ответственности за их содержание. Просьба не заливать файлы, защищенные авторскими правами, а также файлы нелегального содержания!


    _________________
    [Профиль] [ЛС]
    Показать сообщения:    
    Ответить на тему

    Текущее время: Сегодня, в 03:25

    Часовой пояс: GMT + 2



    Вы не можете начинать темы
    Вы не можете отвечать на сообщения
    Вы не можете редактировать свои сообщения
    Вы не можете удалять свои сообщения
    Вы не можете голосовать в опросах
    Вы не можете прикреплять файлы к сообщениям
    Вы не можете скачивать файлы