BitTorrentTracker PerecTracker.org
BitTorrentTracker PerecTracker.org
    
Регистрация  ·  Вход
 
 · 
Забыли пароль?

  • Беги без оглядки / Running Scared (Уэйн Крэймер / Wayne Kramer) [2006, Германия, США, боевик, триллер, драма, BDRip 1080p] Dub + 2x AVO + 3x VO + MVO (Ukr) + Sub Rus, Eng (x2) + Original Eng

    Ответить на тему
     
    Автор Сообщение

    Light

    Создавать темы 01-Июн-2016 18:15

           

    [Цитировать]

    Беги без оглядки / Running Scared
    Страна: Германия, США
    Студия: New Line Cinema, Media 8 Entertainment, True Grit Productions
    Жанр: боевик, триллер, драма
    Год выпуска: 2006
    Продолжительность: 02:02:03
    Перевод 1: Профессиональный (дублированный) - R5
    Перевод 2: Авторский (одноголосый закадровый) - Ю. Немахов
    Перевод 3: Одноголосый закадровый - М. Чадов (ненормативная лексика)
    Перевод 4: Авторский (одноголосый закадровый) - А. Гаврилов
    Перевод 5: Одноголосый закадровый - Madrid (ненормативная лексика)
    Перевод 6: Одноголосый закадровый - Д. Штамп (ненормативная лексика)
    Cубтитры: русские, английские, английские (SDH)
    Оригинальная аудиодорожка: английский
    Режиссер: Уэйн Крэймер / Wayne Kramer
    В ролях: Пол Уокер, Вера Фармига, Камерон Брайт, Алекс Нойбергер, Чазз Пальминтери, Карел Роден, Джон Ноубл, Ивана Миличевич, Джонни Месснер, Артур Дж. Наскарелла
    Описание: После того как была сорвана сделка наркоторговцев, в результате чего погибли несколько продажных полицейских, мелкому гангстеру Джоуи нужно было избавиться от оружия, оставшегося на месте перестрелки.
    Ситуация еще более осложнилась, когда сын его соседа завладел одним из пистолетов и выстрелил из него в своего отца. В итоге Джоуи вынужден был всю ночь разыскивать этого парнишку, чтобы вернуть пропажу. При этом ему пришлось скрываться от других гангстеров, а также от полиции…- -Сэмпл: http://sendfile.su/1238595
    Тип релиза: BDRip 1080p [momosas]
    Контейнер: MKV
    Видео: h.264, 1920x816, 23.976 fps, 20200 kbps
    Аудио #1: Russian: DTS 5.1, 48 kHz/24-bit, 768 kbps avg |Дубляж, R5|
    Аудио #2: Russian: DTS 5.1, 48 kHz/24-bit, 768 kbps avg |Одноголосый закадровый, Ю. Немахов|
    Аудио #3: Russian: AC3 5.1, 48 kHz, 448 kbps avg |Одноголосый закадровый, М. Чадов (ненормативная лексика)|
    Аудио #4: Russian: AC3 5.1, 48 kHz, 448 kbps avg |Одноголосый закадровый, А. Гаврилов|
    Аудио #5: Russian: AC3 5.1, 48 kHz, 384 kbps avg |Одноголосый закадровый, Madrid (ненормативная лексика)|
    Аудио #6: Russian: AC3 5.1, 48 kHz, 384 kbps avg |Одноголосый закадровый, Д. Штамп (ненормативная лексика)|
    Аудио #7: Ukrainian: AC3 2.0, 48 kHz, 192 kbps avg |Многоголосый закадровый, Украина|
    Аудио #8: English: DTS 5.1, 48 kHz/24-bit, 1536 kbps avg |Оригинал|
    Аудио #9: English: AC3 2.0, 48 kHz, 192 kbps avg |Commentary by Writer Director Wayne Kramer|
    Формат субтитров: softsub (SRT)

    MediaInfo

    Complete name : D:\Принятые\Running.Scared.2006.1080p.BluRay.6xRus.Ukr.Eng.HDCLUB-momosas.mkv
    Format : Matroska
    Format version : Version 4 / Version 2
    File size : 21.5 GiB
    Duration : 2h 2mn
    Overall bit rate : 25.2 Mbps
    Movie name : Running Scared (2006)
    Encoded date : UTC 2016-05-20 05:40:48
    Writing application : mkvmerge v8.2.0 ('World of Adventure') 64bit
    Writing library : libebml v1.3.1 + libmatroska v1.4.2
    Cover : Yes
    Attachments : cover.jpg
    Video
    ID : 1
    Format : AVC
    Format/Info : Advanced Video Codec
    Format profile : High@L4.1
    Format settings, CABAC : Yes
    Format settings, ReFrames : 5 frames
    Codec ID : V_MPEG4/ISO/AVC
    Duration : 2h 2mn
    Bit rate : 20.2 Mbps
    Width : 1 920 pixels
    Height : 816 pixels
    Display aspect ratio : 2.35:1
    Frame rate mode : Constant
    Frame rate : 23.976 (24000/1001) fps
    Color space : YUV
    Chroma subsampling : 4:2:0
    Bit depth : 8 bits
    Scan type : Progressive
    Bits/(Pixel*Frame) : 0.538
    Stream size : 17.2 GiB (80%)
    Title : Release for HDCLUB
    Writing library : x264 core 142 r2479 dd79a61
    Encoding settings : cabac=1 / ref=5 / deblock=1:-3:-3 / analyse=0x3:0x133 / me=umh / subme=11 / psy=1 / psy_rd=1.12:0.01 / mixed_ref=1 / me_range=48 / chroma_me=1 / trellis=2 / 8x8dct=1 / cqm=0 / deadzone=21,11 / fast_pskip=0 / chroma_qp_offset=-3 / threads=12 / lookahead_threads=2 / sliced_threads=0 / nr=0 / decimate=0 / interlaced=0 / bluray_compat=0 / constrained_intra=0 / bframes=8 / b_pyramid=2 / b_adapt=2 / b_bias=0 / direct=3 / weightb=1 / open_gop=0 / weightp=2 / keyint=240 / keyint_min=22 / scenecut=40 / intra_refresh=0 / rc_lookahead=60 / rc=2pass / mbtree=0 / bitrate=20200 / ratetol=1.0 / qcomp=0.72 / qpmin=0 / qpmax=69 / qpstep=4 / cplxblur=20.0 / qblur=0.5 / vbv_maxrate=50000 / vbv_bufsize=62500 / nal_hrd=none / filler=0 / ip_ratio=1.20 / pb_ratio=1.10 / aq=1:0.70
    Language : English
    Default : Yes
    Forced : No
    Color range : Limited
    Color primaries : BT.709
    Transfer characteristics : BT.709
    Matrix coefficients : BT.709
    Audio #1
    ID : 2
    Format : DTS
    Format/Info : Digital Theater Systems
    Mode : 16
    Format settings, Endianness : Big
    Codec ID : A_DTS
    Duration : 2h 1mn
    Bit rate mode : Constant
    Bit rate : 755 Kbps
    Channel(s) : 6 channels
    Channel positions : Front: L C R, Side: L R, LFE
    Sampling rate : 48.0 KHz
    Frame rate : 93.750 fps (512 spf)
    Bit depth : 24 bits
    Compression mode : Lossy
    Stream size : 658 MiB (3%)
    Title : Дубляж
    Language : Russian
    Default : Yes
    Forced : No
    Audio #2
    ID : 3
    Format : DTS
    Format/Info : Digital Theater Systems
    Mode : 16
    Format settings, Endianness : Big
    Codec ID : A_DTS
    Duration : 2h 2mn
    Bit rate mode : Constant
    Bit rate : 755 Kbps
    Channel(s) : 6 channels
    Channel positions : Front: L C R, Side: L R, LFE
    Sampling rate : 48.0 KHz
    Frame rate : 93.750 fps (512 spf)
    Bit depth : 24 bits
    Compression mode : Lossy
    Stream size : 660 MiB (3%)
    Title : Немахов
    Language : Russian
    Default : No
    Forced : No
    Audio #3
    ID : 4
    Format : AC-3
    Format/Info : Audio Coding 3
    Mode extension : CM (complete main)
    Format settings, Endianness : Big
    Codec ID : A_AC3
    Duration : 2h 2mn
    Bit rate mode : Constant
    Bit rate : 448 Kbps
    Channel(s) : 6 channels
    Channel positions : Front: L C R, Side: L R, LFE
    Sampling rate : 48.0 KHz
    Frame rate : 31.250 fps (1536 spf)
    Compression mode : Lossy
    Stream size : 392 MiB (2%)
    Title : Чадов
    Language : Russian
    Default : No
    Forced : No
    Audio #4
    ID : 5
    Format : AC-3
    Format/Info : Audio Coding 3
    Mode extension : CM (complete main)
    Format settings, Endianness : Big
    Codec ID : A_AC3
    Duration : 2h 1mn
    Bit rate mode : Constant
    Bit rate : 448 Kbps
    Channel(s) : 6 channels
    Channel positions : Front: L C R, Side: L R, LFE
    Sampling rate : 48.0 KHz
    Frame rate : 31.250 fps (1536 spf)
    Compression mode : Lossy
    Stream size : 391 MiB (2%)
    Title : Гаврилов
    Language : Russian
    Default : No
    Forced : No
    Audio #5
    ID : 6
    Format : AC-3
    Format/Info : Audio Coding 3
    Mode extension : CM (complete main)
    Format settings, Endianness : Big
    Codec ID : A_AC3
    Duration : 2h 1mn
    Bit rate mode : Constant
    Bit rate : 384 Kbps
    Channel(s) : 6 channels
    Channel positions : Front: L C R, Side: L R, LFE
    Sampling rate : 48.0 KHz
    Frame rate : 31.250 fps (1536 spf)
    Compression mode : Lossy
    Stream size : 335 MiB (2%)
    Title : Madrid
    Language : Russian
    Default : No
    Forced : No
    Audio #6
    ID : 7
    Format : AC-3
    Format/Info : Audio Coding 3
    Mode extension : CM (complete main)
    Format settings, Endianness : Big
    Codec ID : A_AC3
    Duration : 2h 1mn
    Bit rate mode : Constant
    Bit rate : 384 Kbps
    Channel(s) : 6 channels
    Channel positions : Front: L C R, Side: L R, LFE
    Sampling rate : 48.0 KHz
    Frame rate : 31.250 fps (1536 spf)
    Compression mode : Lossy
    Stream size : 335 MiB (2%)
    Title : Штамп
    Language : Russian
    Default : No
    Forced : No
    Audio #7
    ID : 8
    Format : AC-3
    Format/Info : Audio Coding 3
    Mode extension : CM (complete main)
    Format settings, Endianness : Big
    Codec ID : A_AC3
    Duration : 2h 1mn
    Bit rate mode : Constant
    Bit rate : 192 Kbps
    Channel(s) : 2 channels
    Channel positions : Front: L R
    Sampling rate : 48.0 KHz
    Frame rate : 31.250 fps (1536 spf)
    Compression mode : Lossy
    Stream size : 167 MiB (1%)
    Title : Украина
    Language : Ukrainian
    Default : No
    Forced : No
    Audio #8
    ID : 9
    Format : DTS
    Format/Info : Digital Theater Systems
    Mode : 16
    Format settings, Endianness : Big
    Codec ID : A_DTS
    Duration : 2h 2mn
    Bit rate mode : Constant
    Bit rate : 1 509 Kbps
    Channel(s) : 6 channels
    Channel positions : Front: L C R, Side: L R, LFE
    Sampling rate : 48.0 KHz
    Frame rate : 93.750 fps (512 spf)
    Bit depth : 24 bits
    Compression mode : Lossy
    Stream size : 1.29 GiB (6%)
    Language : English
    Default : No
    Forced : No
    Audio #9
    ID : 10
    Format : AC-3
    Format/Info : Audio Coding 3
    Format profile : Dolby Digital
    Mode extension : CM (complete main)
    Format settings, Endianness : Big
    Codec ID : A_AC3
    Duration : 2h 2mn
    Bit rate mode : Constant
    Bit rate : 192 Kbps
    Channel(s) : 2 channels
    Channel positions : Front: L R
    Sampling rate : 48.0 KHz
    Frame rate : 31.250 fps (1536 spf)
    Compression mode : Lossy
    Stream size : 168 MiB (1%)
    Title : Commentary by Writer Director Wayne Kramer
    Language : English
    Default : No
    Forced : No
    Text #1
    ID : 11
    Format : UTF-8
    Codec ID : S_TEXT/UTF8
    Codec ID/Info : UTF-8 Plain Text
    Duration : 1h 53mn
    Bit rate : 82 bps
    Count of elements : 1326
    Stream size : 68.8 KiB (0%)
    Language : Russian
    Default : No
    Forced : No
    Text #2
    ID : 12
    Format : UTF-8
    Codec ID : S_TEXT/UTF8
    Codec ID/Info : UTF-8 Plain Text
    Duration : 1h 52mn
    Bit rate : 63 bps
    Count of elements : 1437
    Stream size : 52.2 KiB (0%)
    Language : English
    Default : No
    Forced : No
    Text #3
    ID : 13
    Format : UTF-8
    Codec ID : S_TEXT/UTF8
    Codec ID/Info : UTF-8 Plain Text
    Duration : 2h 1mn
    Bit rate : 64 bps
    Count of elements : 1635
    Stream size : 57.3 KiB (0%)
    Title : SDH
    Language : English
    Default : No
    Forced : No
    Menu
    00:00:00.000 : en:Bad Deal
    00:05:49.901 : en:A Simple Task
    00:10:20.901 : en:Secret Stash
    00:13:08.901 : en:"the Duke Lives"
    00:20:09.901 : en:Domestic Dispute
    00:25:27.901 : en:Damage Control
    00:31:16.901 : en:The Dark Side
    00:34:18.901 : en:Bad Pimp
    00:37:57.901 : en:Let's Make a Deal
    00:45:14.901 : en:Hide and Seek
    00:52:20.901 : en:Thirsty for Truth
    00:59:28.406 : en:Father & Son
    01:03:30.107 : en:The Play Room
    01:11:57.441 : en:Maternal Instincts
    01:19:31.041 : en:Pep Talk
    01:26:31.901 : en:"Nobody Knows Nobody"
    01:31:06.076 : en:Showdown on Ice
    01:43:43.910 : en:Going Home
    01:46:32.410 : en:Pimpin' Ain't Easy
    01:49:45.910 : en:Family Reunion
    01:54:27.901 : en:End Credits

    Source vs Encode





    Скриншоты

    Скачать .torrent

    Скачать торрент-файл бесплатно и на максимальной скорости!

    Как скачивать? · Что такое торрент? · Рейтинг и ограничения

    !ВНИМАНИЕ!
    Сайт не распространяет и не хранит электронные версии произведений, а занимается лишь лишь предоставлением доступа к создаваемому пользователями каталогу ссылок на торрент-файлы, которые содержат только списки хеш-сумм, убедительная просьба с жалобами обращаться напрямую к пользователю. Файлы для обмена на трекере предоставлены пользователями сайта, и администрация не несёт ответственности за их содержание. Просьба не заливать файлы, защищенные авторскими правами, а также файлы нелегального содержания!


    _________________
    [Профиль] [ЛС]
    Показать сообщения:    
    Ответить на тему

    Текущее время: Сегодня, в 22:02

    Часовой пояс: GMT + 2



    Вы не можете начинать темы
    Вы не можете отвечать на сообщения
    Вы не можете редактировать свои сообщения
    Вы не можете удалять свои сообщения
    Вы не можете голосовать в опросах
    Вы не можете прикреплять файлы к сообщениям
    Вы не можете скачивать файлы