BitTorrentTracker PerecTracker.org
BitTorrentTracker PerecTracker.org
    
Регистрация  ·  Вход
 
 · 
Забыли пароль?

  • Сделай шаг: Лови момент / Make Your Move (Дуан Адлер / Duane Adler) [2013, США, Корея Южная, мелодрама, BDRip 720p] Dub + DVO (GREEN TEA) + Original (Eng) + Sub (Rus, Eng)

    Ответить на тему
     
    Автор Сообщение

    Light

    Создавать темы 01-Июн-2016 18:15

           

    [Цитировать]

    Сделай шаг: Лови момент / Make Your Move«Танец - повод для знакомства»-Страна: США, Корея Южная
    Жанр: мелодрама
    Год выпуска: 2013
    Продолжительность: 01:49:56-Перевод №1: Профессиональный (дублированный)
    Перевод №2: Любительский (двухголосый закадровый) - GREEN TEA - [текст читали - Ольга Гринтиева и Франк Цветков]
    Оригинальная аудиодорожка: English
    Cубтитры: Русские (полные - notabenoid), English (full + full SDH)
    Навигация по главам: присутствует - 16 глав-Режиссер: Дуан Адлер / Duane Adler
    В ролях: Дерек Хаф, БоА, Уилл Юн Ли, Уэсли Джонатан, Изабелла Мико, Джефферсон Браун, Мики Исикава, Рик Гонсалес, Майкл Мэндо, Дэн Лория ...-Описание: История о двух танцорах, которые выросли в разных условиях. Но оба они окажутся в Нью-Йорке и будут работать вместе в клубе. Между ними соперничество, но, когда двое влюбляются, история превращается в историю Ромео и Джульетты.-
    Download sample-Качество видео: BDRip 720p |
    Формат: MKV-Видео: 1 280x720 (16:9), 23.976 fps, H.264, 6729.85 kb/s, 0.298 bit/pixel
    Аудио №1: 48.0 kHz, AC3 Dolby Digital, 2/0 (L,R) ch, ~192 kbps avg | Профессиональный (дублированный)
    Аудио №2: 48.0 kHz, AC3 Dolby Digital, 2/0 (L,R) ch, ~192 kbps avg | Любительский (двухголосый закадровый) - GREEN TEA - [текст читали - Ольга Гринтиева и Франк Цветков]
    Аудио №3: 48.0 kHz, AC3 Dolby Digital, 3/2 (L,C,R,l,r) + LFE ch, ~640 kbps avg | English
    Субтитры №1: Русские (полные - notabenoid) | *.srt
    Субтитры №2: English (full) | *.srt
    Субтитры №3: English (full SDH) | *.srt-

    MediaInfo

    General
    Unique ID : 249252137028444105365334924097511773067 (0xBB8437271CCB96168AB2C190081C538B)
    Complete name : D:\Фильмы\Рипы\Make Your Move.2013.BDRip 720p.eFK tRuAVC.mkv
    Format : Matroska
    Format version : Version 4 / Version 2
    File size : 5.96 GiB
    Duration : 1h 49mn
    Overall bit rate : 7 757 Kbps
    Movie name : Сделай шаг: Лови момент / Make Your Move (2013) - Release for rutracker
    Encoded date : UTC 2016-05-31 11:21:18
    Writing application : mkvmerge v7.6.0 ('Garden of Dreams') 64bit built on Feb 8 2015 13:04:34
    Writing library : libebml v1.3.1 + libmatroska v1.4.2
    Attachements : poster.jpg
    DURATION : 01:49:55.616000000
    NUMBER_OF_FRAMES : 206113
    NUMBER_OF_BYTES : 527649280
    _STATISTICS_WRITING_APP : mkvmerge v7.6.0 ('Garden of Dreams') 64bit built on Feb 8 2015 13:04:34
    _STATISTICS_WRITING_DATE_UT : 2016-05-31 11:21:18
    _STATISTICS_TAGS : BPS DURATION NUMBER_OF_FRAMES NUMBER_OF_BYTES
    Video
    ID : 1
    Format : AVC
    Format/Info : Advanced Video Codec
    Format profile : High@L4.1
    Format settings, CABAC : Yes
    Format settings, ReFrames : 8 frames
    Codec ID : V_MPEG4/ISO/AVC
    Duration : 1h 49mn
    Bit rate : 6 578 Kbps
    Width : 1 280 pixels
    Height : 720 pixels
    Display aspect ratio : 16:9
    Frame rate mode : Constant
    Frame rate : 23.976 fps
    Color space : YUV
    Chroma subsampling : 4:2:0
    Bit depth : 8 bits
    Scan type : Progressive
    Bits/(Pixel*Frame) : 0.298
    Stream size : 5.05 GiB (85%)
    Title : eFK tRuAVC
    Writing library : x264 core 148 r2692kMod 64f4e24
    Encoding settings : cabac=1 / ref=8 / deblock=1:-3:-3 / analyse=0x3:0x113 / me=umh / subme=11 / psy=1 / fade_compensate=0.00 / psy_rd=0.90:0.00 / mixed_ref=1 / me_range=48 / chroma_me=1 / trellis=2 / 8x8dct=1 / cqm=0 / deadzone=21,11 / fast_pskip=0 / chroma_qp_offset=-2 / threads=12 / lookahead_threads=3 / sliced_threads=0 / nr=0 / decimate=1 / interlaced=0 / bluray_compat=0 / constrained_intra=0 / fgo=0 / bframes=16 / b_pyramid=2 / b_adapt=2 / b_bias=0 / direct=3 / weightb=1 / open_gop=0 / weightp=2 / keyint=250 / keyint_min=23 / scenecut=40 / intra_refresh=0 / rc_lookahead=60 / rc=crf / mbtree=0 / crf=16.0000 / qcomp=0.52 / qpmin=0 / qpmax=69 / qpstep=4 / vbv_maxrate=62500 / vbv_bufsize=78125 / crf_max=0.0 / nal_hrd=none / filler=0 / ip_ratio=1.40 / pb_ratio=1.30 / aq=3:0.85
    Language : English
    Default : Yes
    Forced : No
    Color range : Limited
    Color primaries : BT.709
    Transfer characteristics : BT.709
    Matrix coefficients : BT.709
    DURATION : 01:49:55.589000000
    NUMBER_OF_FRAMES : 158136
    NUMBER_OF_BYTES : 5548419373
    _STATISTICS_WRITING_APP : mkvmerge v7.6.0 ('Garden of Dreams') 64bit built on Feb 8 2015 13:04:34
    _STATISTICS_WRITING_DATE_UT : 2016-05-31 11:21:18
    _STATISTICS_TAGS : BPS DURATION NUMBER_OF_FRAMES NUMBER_OF_BYTES
    Audio #1
    ID : 2
    Format : AC-3
    Format/Info : Audio Coding 3
    Mode extension : CM (complete main)
    Format settings, Endianness : Big
    Codec ID : A_AC3
    Duration : 1h 49mn
    Bit rate mode : Constant
    Bit rate : 192 Kbps
    Channel(s) : 2 channels
    Channel positions : Front: L R
    Sampling rate : 48.0 KHz
    Compression mode : Lossy
    Stream size : 151 MiB (2%)
    Title : Dub
    Language : Russian
    Default : Yes
    Forced : No
    Audio #2
    ID : 3
    Format : AC-3
    Format/Info : Audio Coding 3
    Mode extension : CM (complete main)
    Format settings, Endianness : Big
    Codec ID : A_AC3
    Duration : 1h 49mn
    Bit rate mode : Constant
    Bit rate : 192 Kbps
    Channel(s) : 2 channels
    Channel positions : Front: L R
    Sampling rate : 48.0 KHz
    Compression mode : Lossy
    Stream size : 151 MiB (2%)
    Title : Любительский (двухголосый закадровый) - GREEN TEA
    Language : Russian
    Default : No
    Forced : No
    Audio #3
    ID : 4
    Format : AC-3
    Format/Info : Audio Coding 3
    Mode extension : CM (complete main)
    Format settings, Endianness : Big
    Codec ID : A_AC3
    Duration : 1h 49mn
    Bit rate mode : Constant
    Bit rate : 640 Kbps
    Channel(s) : 6 channels
    Channel positions : Front: L C R, Side: L R, LFE
    Sampling rate : 48.0 KHz
    Compression mode : Lossy
    Stream size : 503 MiB (8%)
    Language : English
    Default : No
    Forced : No
    Text #1
    ID : 5
    Format : UTF-8
    Codec ID : S_TEXT/UTF8
    Codec ID/Info : UTF-8 Plain Text
    Title : полные - notabenoid
    Language : Russian
    Default : No
    Forced : No
    Text #2
    ID : 6
    Format : UTF-8
    Codec ID : S_TEXT/UTF8
    Codec ID/Info : UTF-8 Plain Text
    Title : full
    Language : English
    Default : No
    Forced : No
    Text #3
    ID : 7
    Format : UTF-8
    Codec ID : S_TEXT/UTF8
    Codec ID/Info : UTF-8 Plain Text
    Title : full SDH
    Language : English
    Default : No
    Forced : No
    Menu
    00:00:00.000 : :Chapter 01
    00:06:54.914 : :Chapter 02
    00:13:16.670 : :Chapter 03
    00:19:53.609 : :Chapter 04
    00:24:28.049 : :Chapter 05
    00:29:49.996 : :Chapter 06
    00:37:13.147 : :Chapter 07
    00:46:08.265 : :Chapter 08
    00:51:34.091 : :Chapter 09
    00:57:15.265 : :Chapter 10
    01:04:03.798 : :Chapter 11
    01:13:08.175 : :Chapter 12
    01:20:50.595 : :Chapter 13
    01:28:58.583 : :Chapter 14
    01:33:43.284 : :Chapter 15
    01:41:20.574 : :Chapter 16

    x264 log

    x264 [info]: frame I:1101 Avg QP:15.89 size:137021
    x264 [info]: frame P:38235 Avg QP:17.28 size: 63635
    x264 [info]: frame B:118800 Avg QP:19.89 size: 24954
    x264 [info]: consecutive B-frames: 2.0% 4.1% 8.3% 44.1% 12.8% 20.8% 4.1% 3.0% 0.2% 0.4% 0.1% 0.1% 0.0% 0.0% 0.0% 0.0% 0.0%
    x264 [info]: mb I I16..4: 3.6% 81.5% 14.9%
    x264 [info]: mb P I16..4: 0.9% 20.0% 2.1% P16..4: 25.3% 33.6% 13.9% 0.0% 0.0% skip: 4.3%
    x264 [info]: mb B I16..4: 0.1% 2.7% 0.3% B16..8: 32.5% 27.0% 6.3% direct: 7.3% skip:23.9% L0:43.5% L1:40.6% BI:15.9%
    x264 [info]: 8x8 transform intra:86.5% inter:58.6%
    x264 [info]: direct mvs spatial:100.0% temporal:0.0%
    x264 [info]: coded y,uvDC,uvAC intra: 91.5% 95.3% 88.3% inter: 34.1% 37.8% 20.3%
    x264 [info]: i16 v,h,dc,p: 26% 12% 6% 56%
    x264 [info]: i8 v,h,dc,ddl,ddr,vr,hd,vl,hu: 10% 8% 8% 10% 13% 13% 12% 13% 13%
    x264 [info]: i4 v,h,dc,ddl,ddr,vr,hd,vl,hu: 10% 7% 9% 9% 15% 15% 13% 11% 12%
    x264 [info]: i8c dc,h,v,p: 52% 14% 15% 19%
    x264 [info]: Weighted P-Frames: Y:3.4% UV:2.5%
    x264 [info]: ref P L0: 47.5% 9.1% 18.7% 7.4% 6.3% 4.2% 4.2% 2.5% 0.1% 0.0%
    x264 [info]: ref B L0: 78.8% 10.6% 4.7% 2.6% 1.8% 1.1% 0.4%
    x264 [info]: ref B L1: 96.1% 3.9%
    x264 [info]: kb/s:6729.85
    x264 [total]: encoded 158136 frames, 5.50 fps, 6729.85 kb/s, duration 7:58:58.70

    Screenshots

    Comparison

    Source

    Encode
    Скачать .torrent

    Скачать торрент-файл бесплатно и на максимальной скорости!

    Как скачивать? · Что такое торрент? · Рейтинг и ограничения

    !ВНИМАНИЕ!
    Сайт не распространяет и не хранит электронные версии произведений, а занимается лишь лишь предоставлением доступа к создаваемому пользователями каталогу ссылок на торрент-файлы, которые содержат только списки хеш-сумм, убедительная просьба с жалобами обращаться напрямую к пользователю. Файлы для обмена на трекере предоставлены пользователями сайта, и администрация не несёт ответственности за их содержание. Просьба не заливать файлы, защищенные авторскими правами, а также файлы нелегального содержания!


    _________________
    [Профиль] [ЛС]
    Показать сообщения:    
    Ответить на тему

    Текущее время: Сегодня, в 08:12

    Часовой пояс: GMT + 2



    Вы не можете начинать темы
    Вы не можете отвечать на сообщения
    Вы не можете редактировать свои сообщения
    Вы не можете удалять свои сообщения
    Вы не можете голосовать в опросах
    Вы не можете прикреплять файлы к сообщениям
    Вы не можете скачивать файлы