BitTorrentTracker PerecTracker.org
BitTorrentTracker PerecTracker.org
    
Регистрация  ·  Вход
 
 · 
Забыли пароль?

  • 1408 / 1408 (Микаэль Хофстрём / Mikael Hafstrom) [2007, США, ужасы, триллер, BDRip 720p] [Театральная версия / Theatrical Cut] Dub + DVO (Гланц и Королева) + DVO + MVO (КиноМания) + 2x AVO (Немахов, Гранкин) + 2x VO + Original Eng + Sub Rus, Eng

    Ответить на тему
     
    Автор Сообщение

    Light

    Создавать темы 01-Июн-2016 18:15

           

    [Цитировать]

    1408 / 1408 [Театральная версия / Theatrical Cut]
    «Отель "Дельфин" приглашает Вас остановиться в любом из наших роскошных номеров. Кроме одного…»
    -Год выпуска: 2007
    Страна: США
    Жанр: Ужасы, триллер-Продолжительность: 1:44:16
    Перевод №1: Профессиональный (полное дублирование) [DVD R5]
    Перевод №2: Профессиональный (двухголосый закадровый) [П. Гланц & И. Королёва] + вставки Dub
    Перевод №3: Профессиональный (двухголосый закадровый)
    Перевод №4: Профессиональный (многоголосый закадровый) [КиноМания] + вставки DVO
    Перевод №5: Авторский (одноголосый закадровый) [Ю. Немахов] + вставки DVO
    Перевод №6: Авторский (одноголосый закадровый) [Е. Гранкин]
    Перевод №7: Одноголосый закадровый [А. Багичев]
    Перевод №8: Одноголосый закадровый [Ю. Максимов]
    Оригинальная аудиодорожка: Английская
    Cубтитры: Русские, английские {*.srt}
    Навигация по главам: Присутствует-Режиссер: Микаэль Хофстрём / Mikael Håfström
    В ролях: Джон Кьюсак, Сэмюэл Л. Джексон, Мэри МакКормак, Жасмин Джессика Энтони, Лен Кариу, Тони Шэлуб, Пол Бирчард, Марго Лейкестер, Уолтер Льюис, Эрик Мейерс и др.-Описание: Известный писатель Майк Энслин, сочиняющий свои романы в жанре «ужасы», пишет очередную книгу о необычных явлениях и полтергейсте в отелях. Не верящий в существование загробной жизни, Энслин решает поселиться в печально известном номере 1408 гостиницы «Дельфин», который пустует многие годы: по слухам, там обитают привидения. Невзирая на предупреждения старшего менеджера мистера Джеральда Олина о грозящей опасности, упрямец настаивает на своем, даже не предполагая, каким кошмаром обернется предстоящая ночь…-Бюджет: $25 000 000
    Сборы в США: $71 985 628 | Сборы в Мире: + $60 047 755 = $132 033 383 | Сборы в России: $3 846 359
    Рейтинг MPAA: PG-13 (Детям до 13 лет просмотр не желателен!)
    -Качество видео: BDRip 720p
    Формат видео: MKV
    Видео: 1280x532 (2.40:1), 23.976 fps, x264 ~9445 kbps avg
    Аудио #1: 48 kHz, DTS, 3/2 (L,C,R,l,r) + LFE ch, ~1509 kbps | Dub
    Аудио #2: 48 kHz, DTS, 3/2 (L,C,R,l,r) + LFE ch, ~1509 kbps | Гланц и Королева
    Аудио #3: 48 kHz, AC3, 3/2 (L,C,R,l,r) + LFE ch, ~448 kbps | DVO
    Аудио #4: 48 kHz, AC3, 3/2 (L,C,R,l,r) + LFE ch, ~448 kbps | КиноМания
    Аудио #5: 48 kHz, DTS, 3/2 (L,C,R,l,r) + LFE ch, ~1509 kbps | Немахов
    Аудио #6: 48 kHz, AC3, 2/0 (L,R), ~192 kbps | Гранкин
    Аудио #7: 48 kHz, DTS, 3/2 (L,C,R,l,r) + LFE ch, ~1509 kbps | Багичев
    Аудио #8: 48 kHz, DTS, 3/2 (L,C,R,l,r) + LFE ch, ~1509 kbps | Максимов
    Аудио #9: 48 kHz, DTS, 3/2 (L,C,R,l,r) + LFE ch, ~1509 kbps | Original Eng

    Интересные факты

    • Фильм снят по одноимённому рассказу Стивена Кинга.
    • Начало съёмок — 13 июля 2006 года.
    • Если сложить все цифры в числе 1408, получится 13. В гостинице «Дельфин» нет 13 этажа: сразу за 12-м идёт 14-й, поэтому номер 1408 фактически находится на 13 этаже. На ключе от двери выбиты цифры 6214. Первая смерть произошла в 1912 году. Отель расположен по адресу 2245, Лексингтон стрит. Сложение всех этих цифр даёт один результат.
    • Персонаж Джексона говорит, что в комнате 1408 было 56 смертей. После этого он вручает герою Кьюсака бутылку коньяка «Les Cinquante Sept Deces» (57 смертей).
    • Название гостиницы — отсылка к книге Харуки Мураками «Охота на овец» и её продолжению «Дэнс, Дэнс, Дэнс». В них присутствовал отель «Дельфин», где происходили странные вещи.
    • Одну из жертв номера зовут Грэйди, как и одного из героев фильма «Сияние», другой истории Кинга об ужасном отеле.
    • Жену Майка Лили должна была сыграть Кейт Уолш, однако из-за её занятости в сериале «Анатомия страсти» роль исполнила Мэри Маккормак.
    • В сцене, где Майк приходит в себя на берегу моря, на его костюме видна надпись Psycho — это реминисценция фильма «Психо» режиссёра Альфреда Хичкока.
    • В своём рассказе Стивен Кинг вдохновлялся историей настоящего парапсихолога Кристофера Чэйкона, который описал своё исследование номера, одержимого духами, в отеле «Дель Коронадо» в Коронадо, штат Калифорния.
    • Рассказ Кинга фактически никогда не был опубликован в печатном виде. Сюжет он использовал для своей книги «О писательском мастерстве», однако история ему нравилась, поэтому он включил её в цикл рассказов для аудиосборника.
    • Одна из ранних книг Майка называется «Долгий путь домой». Управляющий отелем Джералд Олин путает название и произносит его как «Долгая прогулка»; так называется один из романов Кинга.
    • «В роли» отеля «Дельфин» выступил отель «Рузвельт», расположенный на углу 45-й улицы и Мэдисон-авеню в Нью-Йорке.
    • Водные эпизоды были отсняты в специальном подводном павильоне студии «Пайнвуд», Айвер-Хет, графство Бэкингемшир, Англия.
    • В своём выступлении перед раздачей автографов Майк Энслин говорит: «Бояться надо». Это одна из любимых фраз классика американского кинохоррора, режиссёра, сценариста и продюсера Джорджа Ромеро, друга Стивена Кинга, поставившего два фильма по его произведениям — «Калейдоскоп ужасов» (1982) и «Тёмная половина» (1993). Ромеро любит произносить эту фразу на публике и часто использует её как часть своего автографа.
    • Топор, которым пожарный взламывает дверь, — точно такой же, какой был у Джека Торранса в фильме Стэнли Кубрика «Сияние» (1980), экранизации одноимённого романа Стивена Кинга.
    • Один раз в фильме Майк Энслин появляется в головном уборе с надписью «Паранойя — это полное понимание». Это отсылка к одной из любимых поговорок Стивена Кинга: «Идеальная паранойя — это идеальное понимание».
    • В начале своего пребывания в номере 1408 Майк Энслин произносит: «„Зло банально“, — сказал кто-то из великих умов». Речь идёт о немецком политическом теоретике Ханне Арендт, которая писала о «банальности зла» в своём эссе «Банальность зла: Эйхман в Иерусалиме».
    • У Майка Энслина есть шапка с логотипом бейсбольной команды «Чикаго Уайт Сокс». Чикаго — родной город актёра Джона Кьюсака.
    • Кадр, в котором Майк Энслин висит на карнизе, — это цитата из классического триллера Альфреда Хичкока «Головокружение» (1958).
    • Сидя в номере после первого флешбэка (видеозаписи с дочерью), Майк произносит фразу : «Может, меня здесь и нет. Может, мне снится кошмар. Необычайно подробный…». Подобную фразу произносит главный герой игры Silent Hill, Гарри Мэйсон, также попавший в кошмарную альтернативную реальность.
    • Когда Майк, только вселившись в номер, достает из тумбочки Библию и открывает где-то в середине, крупным планом показывают две страницы, вверху которых написано Samuel. Именно Сэмюэлем зовут актёра, снявшегося в этом фильме в роли управляющего отелем «Дельфин» (Сэмюэль Л. Джексон).
    • Майк, по ходу его пребывания в отеле проходит круги ада. Например, снег и вода это шестой круг, а огонь седьмой.

    Видеоряд от JewelBox

    [color=black]1408 2007 Theatrical Cut 720p BluRay DD5.1 x264-JewelBox
    CONTAINER FORMAT..: Matroska
    SIZE..............: 7.34 GiB
    RUNTIME...........: 1:44:16
    FRAMERATE.........: 23.976 fps
    RESOLUTION........: 1280x532
    ASPECT RATIO......: 2.40:1
    VIDEO CODEC.......: x264, High@L4.1, ref=9
    VIDEO BITRATE.....: 9445 Kbps
    AUDIO.............: English AC-3 6ch @ 640 Kbps
    SUBTITLES.........: Eng, Swe (.srt)
    CHAPTERS..........: Named
    SOURCE............: 1408 2007 1080p JPN Blu-ray AVC TrueHD 5.1-CrsS (thx!)
    ENCODER...........: Juvelir
    RELEASE DATE......: 09/04/2016
    x264 [info]: frame I:1519  Avg QP:15.02  size:125399
    x264 [info]: frame P:28998 Avg QP:15.97  size: 74012
    x264 [info]: frame B:119435 Avg QP:18.11  size: 42256
    x264 [info]: consecutive B-frames:  2.4%  1.2%  4.6% 11.7% 10.2% 53.8%  7.7%  1.2%  1.9%  1.0%  1.2%  0.7%  1.1%  0.7%  0.5%
    x264 [info]: kb/s:9444.52[/color]

    Доп. информация

    • Релиз групп JewelBox & RiPSaW.
    • Энкод с более лучшего японского трансфера. Сравнения: http://imgbox.com/g/QYgpLVxDjG-
    • Фильм был выпущен в двух версиях - Театральной и Режиссёрской. Театральная отличается очень незначительным сокращением некоторых сцен и совершенно другим финалом. Подробно: http://www.movie-censorship.com/report.php?ID=4430
    • Каждый из переводов существует только для одной из версий, поэтому в дорогах от режиссёрской имеются вставки на сцены из театральной.
    • В дороге Гланца вставки было решено сделать из дубляжа - по удивительной случайности, главного героя там озвучивает всё тот же Пётр Иващенко. Смотрится эта "адская смесь" весьма органично.-
    • Немахов, Багичев и Максимов выполнены наложением чистого голоса на центр декодированного оригинала. За голоса Багичева и Максимова благодарности уходят budulay8743.
    • За дорогу Гранкина также спасибо budulay8743.
    • Оригинальная дорога взята с GER-исходника, т.к. по динамике выигрывает у оригинальной с JPN-исходника.
    • Вся работа по звуку (синхронизация, вставки, наложение и т.д.) осуществлена группой RiPSaW.

    MediaInfo

    [color=black]General
    Unique ID                   : 219819780509984113345320146409524260497 (0xA55FBFF09E10C0CABB4C33CF92336E91)
    Complete name               : 1408.2007.Theatrical.Cut.RUS.720p.BluRay.DD5.1.x264-JewelBox.mkv
    Format                      : Matroska
    Format version              : Version 2
    File size                   : 14.3 GiB
    Duration                    : 1h 44mn
    Overall bit rate            : 19.6 Mbps
    Movie name                  : 1408 (2007) [Theatrical Cut] - BDRip 720p © Juvelir & RiPSaW™
    Encoded date                : UTC 2016-05-25 11:19:17
    Writing application         : mkvmerge v7.8.0 ('River Man') 32bit built on Apr  3 2015 12:11:22
    Writing library             : libebml v1.3.1 + libmatroska v1.4.2
    Video
    ID                          : 1
    Format                      : AVC
    Format/Info                 : Advanced Video Codec
    Format profile              : High@L4.1
    Format settings, CABAC      : Yes
    Format settings, ReFrames   : 9 frames
    Codec ID                    : V_MPEG4/ISO/AVC
    Duration                    : 1h 44mn
    Bit rate                    : 9 059 Kbps
    Width                       : 1 280 pixels
    Height                      : 532 pixels
    Display aspect ratio        : 2.40:1
    Frame rate mode             : Constant
    Frame rate                  : 23.976 (24000/1001) fps
    Color space                 : YUV
    Chroma subsampling          : 4:2:0
    Bit depth                   : 8 bits
    Scan type                   : Progressive
    Bits/(Pixel*Frame)          : 0.555
    Stream size                 : 6.60 GiB (46%)
    Title                       : 1408 2007 Theatrical Cut 720p BluRay DD5.1 x264-JewelBox
    Writing library             : x264 core 148 r2665kMod a01e339
    Encoding settings           : cabac=1 / ref=9 / deblock=1:-3:-3 / analyse=0x3:0x133 / me=umh / subme=11 / psy=1 / fade_compensate=0.00 / psy_rd=1.05:0.00 / mixed_ref=1 / me_range=48 / chroma_me=1 / trellis=2 / 8x8dct=1 / cqm=0 / deadzone=21,11 / fast_pskip=0 / chroma_qp_offset=-2 / threads=6 / lookahead_threads=1 / sliced_threads=0 / nr=0 / decimate=1 / interlaced=0 / bluray_compat=0 / constrained_intra=0 / fgo=0 / bframes=14 / b_pyramid=2 / b_adapt=2 / b_bias=0 / direct=3 / weightb=1 / open_gop=0 / weightp=2 / keyint=240 / keyint_min=23 / scenecut=40 / intra_refresh=0 / rc_lookahead=60 / rc=crf / mbtree=0 / crf=15.9000 / qcomp=0.60 / qpmin=0 / qpmax=69 / qpstep=4 / vbv_maxrate=62500 / vbv_bufsize=78125 / crf_max=0.0 / nal_hrd=none / filler=0 / ip_ratio=1.35 / pb_ratio=1.30 / aq=1:0.90
    Language                    : English
    Default                     : Yes
    Forced                      : Yes
    Color range                 : Limited
    Color primaries             : BT.709
    Transfer characteristics    : BT.709
    Matrix coefficients         : BT.709
    Audio #1
    ID                          : 2
    Format                      : DTS
    Format/Info                 : Digital Theater Systems
    Mode                        : 16
    Format settings, Endianness : Big
    Codec ID                    : A_DTS
    Duration                    : 1h 44mn
    Bit rate mode               : Constant
    Bit rate                    : 1 510 Kbps
    Channel(s)                  : 6 channels
    Channel positions           : Front: L C R, Side: L R, LFE
    Sampling rate               : 48.0 KHz
    Frame rate                  : 93.750 fps (512 spf)
    Bit depth                   : 24 bits
    Compression mode            : Lossy
    Stream size                 : 1.10 GiB (8%)
    Title                       : Dub (DVD R5)
    Language                    : Russian
    Default                     : Yes
    Forced                      : No
    Audio #2
    ID                          : 3
    Format                      : DTS
    Format/Info                 : Digital Theater Systems
    Mode                        : 16
    Format settings, Endianness : Big
    Codec ID                    : A_DTS
    Duration                    : 1h 44mn
    Bit rate mode               : Constant
    Bit rate                    : 1 510 Kbps
    Channel(s)                  : 6 channels
    Channel positions           : Front: L C R, Side: L R, LFE
    Sampling rate               : 48.0 KHz
    Frame rate                  : 93.750 fps (512 spf)
    Bit depth                   : 24 bits
    Compression mode            : Lossy
    Stream size                 : 1.10 GiB (8%)
    Title                       : DVO (Гланц и Королева)
    Language                    : Russian
    Default                     : No
    Forced                      : No
    Audio #3
    ID                          : 4
    Format                      : AC-3
    Format/Info                 : Audio Coding 3
    Mode extension              : CM (complete main)
    Format settings, Endianness : Big
    Codec ID                    : A_AC3
    Duration                    : 1h 44mn
    Bit rate mode               : Constant
    Bit rate                    : 448 Kbps
    Channel(s)                  : 6 channels
    Channel positions           : Front: L C R, Side: L R, LFE
    Sampling rate               : 48.0 KHz
    Frame rate                  : 31.250 fps (1536 spf)
    Compression mode            : Lossy
    Stream size                 : 334 MiB (2%)
    Title                       : DVO
    Language                    : Russian
    Default                     : No
    Forced                      : No
    Audio #4
    ID                          : 5
    Format                      : AC-3
    Format/Info                 : Audio Coding 3
    Mode extension              : CM (complete main)
    Format settings, Endianness : Big
    Codec ID                    : A_AC3
    Duration                    : 1h 44mn
    Bit rate mode               : Constant
    Bit rate                    : 448 Kbps
    Channel(s)                  : 6 channels
    Channel positions           : Front: L C R, Side: L R, LFE
    Sampling rate               : 48.0 KHz
    Frame rate                  : 31.250 fps (1536 spf)
    Compression mode            : Lossy
    Stream size                 : 334 MiB (2%)
    Title                       : MVO (КиноМания)
    Language                    : Russian
    Default                     : No
    Forced                      : No
    Audio #5
    ID                          : 6
    Format                      : DTS
    Format/Info                 : Digital Theater Systems
    Mode                        : 16
    Format settings, Endianness : Big
    Codec ID                    : A_DTS
    Duration                    : 1h 44mn
    Bit rate mode               : Constant
    Bit rate                    : 1 510 Kbps
    Channel(s)                  : 6 channels
    Channel positions           : Front: L C R, Side: L R, LFE
    Sampling rate               : 48.0 KHz
    Frame rate                  : 93.750 fps (512 spf)
    Bit depth                   : 24 bits
    Compression mode            : Lossy
    Stream size                 : 1.10 GiB (8%)
    Title                       : AVO (Ю. Немахов)
    Language                    : Russian
    Default                     : No
    Forced                      : No
    Audio #6
    ID                          : 7
    Format                      : AC-3
    Format/Info                 : Audio Coding 3
    Mode extension              : CM (complete main)
    Format settings, Endianness : Big
    Codec ID                    : A_AC3
    Duration                    : 1h 44mn
    Bit rate mode               : Constant
    Bit rate                    : 192 Kbps
    Channel(s)                  : 2 channels
    Channel positions           : Front: L R
    Sampling rate               : 48.0 KHz
    Frame rate                  : 31.250 fps (1536 spf)
    Compression mode            : Lossy
    Stream size                 : 143 MiB (1%)
    Title                       : AVO (Е. Гранкин)
    Language                    : Russian
    Default                     : No
    Forced                      : No
    Audio #7
    ID                          : 8
    Format                      : DTS
    Format/Info                 : Digital Theater Systems
    Mode                        : 16
    Format settings, Endianness : Big
    Codec ID                    : A_DTS
    Duration                    : 1h 44mn
    Bit rate mode               : Constant
    Bit rate                    : 1 510 Kbps
    Channel(s)                  : 6 channels
    Channel positions           : Front: L C R, Side: L R, LFE
    Sampling rate               : 48.0 KHz
    Frame rate                  : 93.750 fps (512 spf)
    Bit depth                   : 24 bits
    Compression mode            : Lossy
    Stream size                 : 1.10 GiB (8%)
    Title                       : VO (А. Багичев)
    Language                    : Russian
    Default                     : No
    Forced                      : No
    Audio #8
    ID                          : 9
    Format                      : DTS
    Format/Info                 : Digital Theater Systems
    Mode                        : 16
    Format settings, Endianness : Big
    Codec ID                    : A_DTS
    Duration                    : 1h 44mn
    Bit rate mode               : Constant
    Bit rate                    : 1 510 Kbps
    Channel(s)                  : 6 channels
    Channel positions           : Front: L C R, Side: L R, LFE
    Sampling rate               : 48.0 KHz
    Frame rate                  : 93.750 fps (512 spf)
    Bit depth                   : 24 bits
    Compression mode            : Lossy
    Stream size                 : 1.10 GiB (8%)
    Title                       : VO (Ю. Максимов)
    Language                    : Russian
    Default                     : No
    Forced                      : No
    Audio #9
    ID                          : 10
    Format                      : DTS
    Format/Info                 : Digital Theater Systems
    Mode                        : 16
    Format settings, Endianness : Big
    Codec ID                    : A_DTS
    Duration                    : 1h 44mn
    Bit rate mode               : Constant
    Bit rate                    : 1 510 Kbps
    Channel(s)                  : 6 channels
    Channel positions           : Front: L C R, Side: L R, LFE
    Sampling rate               : 48.0 KHz
    Frame rate                  : 93.750 fps (512 spf)
    Bit depth                   : 24 bits
    Compression mode            : Lossy
    Stream size                 : 1.10 GiB (8%)
    Title                       : Original
    Language                    : English
    Default                     : No
    Forced                      : No
    Text #1
    ID                          : 11
    Format                      : UTF-8
    Codec ID                    : S_TEXT/UTF8
    Codec ID/Info               : UTF-8 Plain Text
    Language                    : Russian
    Default                     : No
    Forced                      : No
    Text #2
    ID                          : 12
    Format                      : UTF-8
    Codec ID                    : S_TEXT/UTF8
    Codec ID/Info               : UTF-8 Plain Text
    Language                    : English
    Default                     : No
    Forced                      : No
    Menu
    00:00:00.000                : en:"Lock Your Door From the Inside"
    00:04:48.288                : en:"A Glimpse of That Elusive Light"
    00:08:19.624                : en:Wipeout
    00:09:47.086                : en:Making a Reservation
    00:14:44.675                : en:Olin's Warning
    00:23:20.315                : en:"Its an Evil Room"
    00:27:25.643                : en:Entering 1408
    00:33:46.899                : en:Exploring the Room
    00:38:58.794                : en:"We've Only Just Begun"
    00:43:24.810                : en:Trapped!
    00:48:24.568                : en:A Glimpse of the Past
    00:51:31.129                : en:A Incredibly Vivid, Lucid Nightmare
    00:58:46.147                : en:The Walls Are Closing In
    01:04:45.756                : en:Crawling Through the Vents
    01:10:18.380                : en:Hell Freezes Over
    01:15:29.149                : en:"I'm Out"
    01:23:02.644                : en:Katie Returns
    01:28:35.184                : en:Express Checkout System
    01:35:43.571                : en:"I Wish We Could Stay Together"
    01:38:20.311                : en:End Credits[/color]

    Скриншоты

    Source / JewelBox / SbR (появился позже)-














    Скачать .torrent

    Скачать торрент-файл бесплатно и на максимальной скорости!

    Как скачивать? · Что такое торрент? · Рейтинг и ограничения

    !ВНИМАНИЕ!
    Сайт не распространяет и не хранит электронные версии произведений, а занимается лишь лишь предоставлением доступа к создаваемому пользователями каталогу ссылок на торрент-файлы, которые содержат только списки хеш-сумм, убедительная просьба с жалобами обращаться напрямую к пользователю. Файлы для обмена на трекере предоставлены пользователями сайта, и администрация не несёт ответственности за их содержание. Просьба не заливать файлы, защищенные авторскими правами, а также файлы нелегального содержания!


    _________________
    [Профиль] [ЛС]
    Показать сообщения:    
    Ответить на тему

    Текущее время: Сегодня, в 14:35

    Часовой пояс: GMT + 2



    Вы не можете начинать темы
    Вы не можете отвечать на сообщения
    Вы не можете редактировать свои сообщения
    Вы не можете удалять свои сообщения
    Вы не можете голосовать в опросах
    Вы не можете прикреплять файлы к сообщениям
    Вы не можете скачивать файлы