BitTorrentTracker PerecTracker.org
BitTorrentTracker PerecTracker.org
    
Регистрация  ·  Вход
 
 · 
Забыли пароль?

  • [ATV3] Элвис и Никсон / Elvis & Nixon (Лиза Джонсон / Liza Johnson ) [2016, США, Комедия, история, WEB-DL, HD (1080p)] DUB

    Ответить на тему
     
    Автор Сообщение

    rechyn

    Создавать темы 01-Июн-2016 18:15

           

    [Цитировать]

    Элвис и Никсон / Elvis & Nixon
    «Реальная история, в которую вы не поверите»
    6.748 / 10 7.20 / 10
    -Год выпуска: 2016
    Страна: США
    Жанр: Комедия, история
    Продолжительность: 01:22:30
    Перевод: Дублированный (iTunes)
    Оригинальная аудиодорожка: Нет
    Cубтитры: Нет
    Режиссёр: Лиза Джонсон
    Сценарий: Джо Сагал, Сьюзен Стэднер, Кэри Элвис
    Продюсер: Кассиан Элвис, Холли Вирсма, Ивэн Арнольд
    Оператор: Терри Стэйси
    Композитор: Эд Ширмёр
    Художник: Мара ЛеПере-Шлуп, Кристин Лекки
    Монтаж: Сабина Хоффманн, Майкл Тейлор
    В ролях: Кевин Спейси, Майкл Шеннон, Алекс Петтифер, Джонни Ноксвил, Колин Хэнкс, Эван Питерс, Скай Феррейра, Трэйси Леттс, Тейт Донован, Эшли Бенсон
    Сборы в США: $1 055 287
    Сборы в России: $53 659
    Мировая премьера: 18 апреля 2016
    Премьера (РФ): 21 апреля 2016, «Парадиз»
    Релиз на DVD: 25 июля 2016, «Парадиз Медиа»
    Описание: О чем болтали король рок-н-ролла Элвис Пресли и президент США Ричард Никсон, когда они встретились в Овальном кабинете? Обеспокоенный стремительным распространением в Америке наркомании и социализма, Элвис просит назначить его тайным агентом наркоконтроля. Президент принимает предложение певца, но заставить Пресли соблюсти хотя бы протокол Белому дому так и не удалось…-Качество исходника: WEB-DL 1080p (NNMClub)
    Качество: WEB-DL
    Тип: HD (1080p)
    Контейнер: M4V
    Видео: H.264, 1920x802, 2.40:1, 4 466 Kbps, 25.000 fps
    Аудио 1: Русский/Дублированный (iTunes), AAC / 2.0 / 154 Kbps / 48.0 KHz
    Аудио 2: Русский/Дублированный (iTunes), AC-3 / 5.1 / 384 Kbps / 48.0 KHz
    -

    iTunes Meta Tags

    Sort Name: Элвис и Никсон
    XID: Apple:vendor_id:2016-645044
    contentID: 1109345956
    Copyright: © 2016 OOO "Экс-медия Диджитал"
    Screenwriters: Джо Сагал, Сьюзен Стэднер, Кэри Элвис
    Producers: Кассиан Элвис, Холли Вирсма, Ивэн Арнольд
    Director: Лиза Джонсон
    Cast: Кевин Спейси, Майкл Шеннон, Алекс Петтифер, Джонни Ноксвил, Колин Хэнкс, Эван Питерс, Скай Феррейра, Трэйси Леттс, Тейт Донован, Эшли Бенсон, Илья Исаев, Сергей Чихачев
    Studio: Amazon Studios
    Rating: 136
    Long Description: О чем болтали король рок-н-ролла Элвис Пресли и президент США Ричард Никсон, когда они встретились в Овальном кабинете? Обеспокоенный стремительным распространением в Америке наркомании и социализма, Элвис просит назначить его тайным агентом наркоконтроля. Президент принимает предложение певца, но заставить Пресли соблюсти хотя бы протокол Белому дому так и не удалось...
    Description: О чем болтали король рок-н-ролла Элвис Пресли и президент США Ричард Никсон, когда они встретились в Овальном кабинете? Обеспокоенный стремительным распространением в Америке наркомании и социализма, Элвис просит назначить его тайным агентом наркоконтроля. Президент принимает предложение певца, но заставить Пресли соблюсти хотя бы протокол Белому дому так и не удалось...
    Release Date: 2016-04-18T08:00:00Z
    Genre: Комедии
    Artist: Лиза Джонсон
    Name: Элвис и Никсон

    MediaInfo

    General
    Complete name : /Users/imac/HandBrake/Elvis.&.Nixon.WEB-DL.1080p.m4v
    Format : MPEG-4
    Codec ID : M4V  (M4V /M4A /mp42/isom)
    File size : 2.89 GiB
    Duration : 1h 22mn
    Overall bit rate mode : Variable
    Overall bit rate : 5 010 Kbps
    Movie name : Элвис и Никсон
    Performer : Лиза Джонсон
    Director : Лиза Джонсон
    Actor : Кевин Спейси / Майкл Шеннон / Алекс Петтифер / Джонни Ноксвил / Колин Хэнкс / Эван Питерс / Скай Феррейра / Трэйси Леттс / Тейт Донован / Эшли Бенсон / Илья Исаев / Сергей Чихачев
    Screenplay by : Джо Сагал / Сьюзен Стэднер / Кэри Элвис
    Producer : Кассиан Элвис / Холли Вирсма / Ивэн Арнольд
    Production studio : Amazon Studios
    Genre : Комедии
    ContentType : Short Film
    Description : О чем болтали король рок-н-ролла Элвис Пресли и президент США Ричард Никсон, когда они встретились в Овальном кабинете? Обеспокоенный стремительным распространением в Америке наркомании и социализма, Элвис просит назначить его тайным агентом наркоконтроля. Президент принимает предложение певца, но заставить Пресли соблюсти хотя бы протокол Белому дому так и не удалось...
    Recorded date : UTC 2016-04-18 08:00:00
    Encoded date : UTC 2016-06-01 10:37:35
    Tagged date : UTC 2016-06-01 10:39:01
    Copyright : © 2016 OOO "Экс-медия Диджитал"
    Cover : Yes
    Rating : None
    Title/Sort : Элвис и Никсон
    LongDescription : О чем болтали король рок-н-ролла Элвис Пресли и президент США Ричард Никсон, когда они встретились в Овальном кабинете? Обеспокоенный стремительным распространением в Америке наркомании и социализма, Элвис просит назначить его тайным агентом наркоконтроля. Президент принимает предложение певца, но заставить Пресли соблюсти хотя бы протокол Белому дому так и не удалось...
    AppleStoreCatalogID : 1109345956
    Vendor : Apple:vendor_id:2016-645044
    ContentRating : ru-movie|18+|400|
    Video #1
    ID : 1
    Format : AVC
    Format/Info : Advanced Video Codec
    Format profile : High@L4
    Format settings, CABAC : Yes
    Format settings, ReFrames : 5 frames
    Codec ID : avc1
    Codec ID/Info : Advanced Video Coding
    Duration : 1h 22mn
    Bit rate : 4 466 Kbps
    Width : 1 920 pixels
    Height : 802 pixels
    Display aspect ratio : 2.40:1
    Frame rate mode : Constant
    Frame rate : 25.000 fps
    Color space : YUV
    Chroma subsampling : 4:2:0
    Bit depth : 8 bits
    Scan type : Progressive
    Bits/(Pixel*Frame) : 0.116
    Stream size : 2.57 GiB (89%)
    Title : Main Program
    Language : English
    Encoded date : UTC 2016-06-01 10:37:35
    Tagged date : UTC 2016-06-01 10:37:39
    Color range : Limited
    Color primaries : BT.709
    Transfer characteristics : BT.709
    Matrix coefficients : BT.709
    Menus : 4,5
    Video #2
    ID : 5
    Format : JPEG
    Codec ID : jpeg
    Duration : 1h 22mn
    Bit rate mode : Variable
    Bit rate : 554 bps
    Width : 640 pixels
    Height : 267 pixels
    Display aspect ratio : 2.40:1
    Frame rate mode : Constant
    Frame rate : 0.002 fps
    Color space : YUV
    Chroma subsampling : 4:2:0
    Bit depth : 8 bits
    Compression mode : Lossy
    Bits/(Pixel*Frame) : 1.621
    Stream size : 473 KiB (0%)
    Title : Chapter Images
    Language : English
    Default : No
    Encoded date : UTC 2016-06-01 10:37:46
    Tagged date : UTC 2016-06-01 10:37:46
    Menu For : 1
    Audio #1
    ID : 2
    Format : AAC
    Format/Info : Advanced Audio Codec
    Format profile : LC
    Codec ID : 40
    Duration : 1h 22mn
    Bit rate mode : Variable
    Bit rate : 154 Kbps
    Maximum bit rate : 233 Kbps
    Channel(s) : 2 channels
    Channel positions : Front: L R
    Sampling rate : 48.0 KHz
    Frame rate : 46.875 fps (1024 spf)
    Compression mode : Lossy
    Stream size : 91.1 MiB (3%)
    Title : Russian Stereo
    Language : Russian
    Default : Yes
    Alternate group : 1
    Encoded date : UTC 2016-06-01 10:37:35
    Tagged date : UTC 2016-06-01 10:37:40
    Fallback From : 3
    Audio #2
    ID : 3
    Format : AC-3
    Format/Info : Audio Coding 3
    Mode extension : CM (complete main)
    Format settings, Endianness : Big
    Codec ID : ac-3
    Duration : 1h 22mn
    Bit rate mode : Constant
    Bit rate : 384 Kbps
    Channel(s) : 6 channels
    Channel positions : Front: L C R, Side: L R, LFE
    Sampling rate : 48.0 KHz
    Frame rate : 31.250 fps (1536 spf)
    Bit depth : 16 bits
    Compression mode : Lossy
    Stream size : 227 MiB (8%)
    Title : Russian DD 5.1
    Language : Russian
    Default : Inherited From: 2
    Alternate group : 1
    Encoded date : UTC 2016-06-01 10:37:35
    Tagged date : UTC 2016-06-01 10:37:39
    Fallback To : 2
    Menu #1
    00:00:00.000 : Глава 1
    00:06:00.440 : Глава 2
    00:11:11.960 : Глава 3
    00:16:57.200 : Глава 4
    00:22:17.760 : Глава 5
    00:28:13.320 : Глава 6
    00:33:45.640 : Глава 7
    00:39:42.200 : Глава 8
    00:45:12.720 : Глава 9
    00:51:07.680 : Глава 10
    00:57:06.240 : Глава 11
    01:04:25.840 : Глава 12
    01:10:13.560 : Глава 13
    01:16:17.160 : Глава 14
    Menu #2
    ID : 4
    Codec ID : text
    Duration : 1h 22mn
    Language : English
    Encoded date : UTC 2016-06-01 10:37:40
    Tagged date : UTC 2016-06-01 10:37:40
    Menu For : 1
    00:00:00.000 : Глава 1
    00:06:00.440 : Глава 2
    00:11:11.960 : Глава 3
    00:16:57.200 : Глава 4
    00:22:17.760 : Глава 5
    00:28:13.320 : Глава 6
    00:33:45.640 : Глава 7
    00:39:42.200 : Глава 8
    00:45:12.720 : Глава 9
    00:51:07.680 : Глава 10
    00:57:06.240 : Глава 11
    01:04:25.840 : Глава 12
    01:10:13.560 : Глава 13
    01:16:17.160 : Глава 14
    Bit rate mode : VBR

    Скриншоты

    -

    Релиз подготовлен для просмотра на Apple TV, iPad, iPhone, iPod Touch.
    Для просмотра данного релиза на компьютере с ОС Windows рекомендуется использовать VLC media player
    Скачать .torrent

    Скачать торрент-файл бесплатно и на максимальной скорости!

    Как скачивать? · Что такое торрент? · Рейтинг и ограничения

    !ВНИМАНИЕ!
    Сайт не распространяет и не хранит электронные версии произведений, а занимается лишь лишь предоставлением доступа к создаваемому пользователями каталогу ссылок на торрент-файлы, которые содержат только списки хеш-сумм, убедительная просьба с жалобами обращаться напрямую к пользователю. Файлы для обмена на трекере предоставлены пользователями сайта, и администрация не несёт ответственности за их содержание. Просьба не заливать файлы, защищенные авторскими правами, а также файлы нелегального содержания!


    _________________
    [Профиль] [ЛС]
    Показать сообщения:    
    Ответить на тему

    Текущее время: Сегодня, в 12:42

    Часовой пояс: GMT + 2



    Вы не можете начинать темы
    Вы не можете отвечать на сообщения
    Вы не можете редактировать свои сообщения
    Вы не можете удалять свои сообщения
    Вы не можете голосовать в опросах
    Вы не можете прикреплять файлы к сообщениям
    Вы не можете скачивать файлы