BitTorrentTracker PerecTracker.org
BitTorrentTracker PerecTracker.org
    
Регистрация  ·  Вход
 
 · 
Забыли пароль?

  • Подводное течение / Undertow (Дэвид Гордон Грин / David Gordon Green) [2004, США, триллер, драма, BDRemux 1080p] DVO + Sub Eng + Original Eng

    Ответить на тему
     
    Автор Сообщение

    Light

    Создавать темы 01-Июн-2016 14:03

           

    [Цитировать]

    Подводное течение / UNDERTOW
    Страна: США
    Студия: United Artists, Muskat Filmed Properties, Sunflower Productions
    Жанр: триллер, драма
    Год выпуска: 2004
    Продолжительность: 01:47:59
    Перевод: Профессиональный (двухголосый закадровый)
    Cубтитры: английские
    Оригинальная аудиодорожка: английский
    Режиссер: Дэвид Гордон Грин / David Gordon Green
    В ролях: Джейми Белл, Девон Алан, Джош Лукас, Дермот Малруни, Шири Эпплби, Эдди Роус, Патрис Джонсон, Пэт Хили, Кристен Стюарт, Билл МакКинни
    Описание: Джон Манн живет со своими сыновьями Крисом и Тимом в деревушке в лесах Джорджии. Старший, Крис, строит репутацию нарушителя спокойствия; младший, Тим, является случайным ребенком, который ест грязь и краску и объясняет, что он «выкладывает книги по тому, как они пахнут».
    Релиз:
    Сэмпл:
    Тип релиза: BDRemux 1080p
    Контейнер: MKV
    Видео: h.264, 26295 kbps, 23.976 fps, 1920x1080
    Аудио 1: Russian: AC3 2.0, 48 kHz, 192 kbps avg |Многоголосый закадровый|
    Аудио 2: English: DTS-HD Master Audio / 2.0 / 48 kHz / 1978 kbps / 24-bit (DTS Core: 2.0 / 48 kHz / 1509 kbps / 24-bit)
    Формат субтитров: softsub (SRT)

    MediaInfo

    Общее
    Уникальный идентификатор : 188029336121608027697572062714166764602 (0x8D752204D0E2DC80A4A2D781354BE43A)
    Полное имя : D:\Film\HD\Undertow.2004.mkv
    Формат : Matroska
    Версия формата : Version 4 / Version 2
    Размер файла : 21,4 Гбайт
    Продолжительность : 1 ч. 48 м.
    Режим общего битрейта : Переменный
    Общий поток : 28,3 Мбит/сек
    Название фильма : Undertow (2004) - Release for rutracker
    Дата кодирования : UTC 2016-05-30 04:04:04
    Программа кодирования : mkvmerge v9.2.0 ('Photograph') 64bit
    Библиотека кодирования : libebml v1.3.3 + libmatroska v1.4.4
    Видео
    Идентификатор : 1
    Формат : AVC
    Формат/Информация : Advanced Video Codec
    Профиль формата : High@L4.1
    Параметр CABAC формата : Да
    Параметр ReFrames формата : 4 кадра
    Идентификатор кодека : V_MPEG4/ISO/AVC
    Продолжительность : 1 ч. 47 м.
    Вид битрейта : Переменный
    Битрейт : 26,2 Мбит/сек
    Максимальный битрейт : 38,0 Мбит/сек
    Ширина : 1920 пикселей
    Высота : 1080 пикселей
    Соотношение сторон : 16:9
    Режим частоты кадров : Постоянный
    Частота кадров : 23,976 (24000/1001) кадра/сек
    Цветовое пространство : YUV
    Субдискретизация насыщенности : 4:2:0
    Битовая глубина : 8 бит
    Тип развёртки : Прогрессивная
    Бит/(Пиксели*Кадры) : 0.527
    Размер потока : 19,8 Гбайт (92%)
    Язык : English
    Default : Да
    Forced : Нет
    Аудио #1
    Идентификатор : 2
    Формат : AC-3
    Формат/Информация : Audio Coding 3
    Расширение режима : CM (complete main)
    Параметр Endianness формата : Big
    Идентификатор кодека : A_AC3
    Продолжительность : 1 ч. 48 м.
    Вид битрейта : Постоянный
    Битрейт : 192 Кбит/сек
    Каналы : 2 канала
    Расположение каналов : Front: L R
    Частота : 48,0 КГц
    Частота кадров : 31,250 кадров/сек (1536 spf)
    Метод сжатия : С потерями
    Размер потока : 148 Мбайт (1%)
    Язык : Russian
    Default : Да
    Forced : Нет
    Аудио #2
    Идентификатор : 3
    Формат : DTS
    Формат/Информация : Digital Theater Systems
    Профиль формата : MA / Core
    Режим : 16
    Параметр Endianness формата : Big
    Идентификатор кодека : A_DTS
    Продолжительность : 1 ч. 47 м.
    Вид битрейта : Переменный / Постоянный
    Битрейт : 1978 Кбит/сек / 1509 Кбит/сек
    Каналы : 2 канала
    Расположение каналов : Front: L R
    Частота : 48,0 КГц
    Частота кадров : 93,750 кадра/сек (512 spf)
    Битовая глубина : 24 бит
    Метод сжатия : Без потерь / Lossy
    Размер потока : 1,49 Гбайт (7%)
    Язык : English
    Default : Нет
    Forced : Нет
    Текст
    Идентификатор : 4
    Формат : UTF-8
    Идентификатор кодека : S_TEXT/UTF8
    Идентификатор кодека/Информация : UTF-8 Plain Text
    Продолжительность : 1 ч. 42 м.
    Битрейт : 38 бит/сек
    Count of elements : 882
    Размер потока : 29,0 Кбайт (0%)
    Язык : English
    Default : Нет
    Forced : Нет

    Скриншоты

    Скачать .torrent

    Скачать торрент-файл бесплатно и на максимальной скорости!

    Как скачивать? · Что такое торрент? · Рейтинг и ограничения

    !ВНИМАНИЕ!
    Сайт не распространяет и не хранит электронные версии произведений, а занимается лишь лишь предоставлением доступа к создаваемому пользователями каталогу ссылок на торрент-файлы, которые содержат только списки хеш-сумм, убедительная просьба с жалобами обращаться напрямую к пользователю. Файлы для обмена на трекере предоставлены пользователями сайта, и администрация не несёт ответственности за их содержание. Просьба не заливать файлы, защищенные авторскими правами, а также файлы нелегального содержания!


    _________________
    [Профиль] [ЛС]
    Показать сообщения:    
    Ответить на тему

    Текущее время: Сегодня, в 23:13

    Часовой пояс: GMT + 2



    Вы не можете начинать темы
    Вы не можете отвечать на сообщения
    Вы не можете редактировать свои сообщения
    Вы не можете удалять свои сообщения
    Вы не можете голосовать в опросах
    Вы не можете прикреплять файлы к сообщениям
    Вы не можете скачивать файлы