BitTorrentTracker PerecTracker.org
BitTorrentTracker PerecTracker.org
    
Регистрация  ·  Вход
 
 · 
Забыли пароль?

  • Дэдпул / Deadpool (Тим Миллер / Tim Miller ) [2016, США, Канада, Фантастика, боевик, комедия, приключения, BDRip, HD (720p)] DUB + Original + sub (rus, eng, ukr)

    Ответить на тему
     
    Автор Сообщение

    rechyn

    Создавать темы 01-Июн-2016 09:51

           

    [Цитировать]

    Дэдпул / Deadpool
    «Стань свидетелем, как он кончит»
    7.690 / 10 8.30 / 10
    -Год выпуска: 2016
    Страна: США, Канада
    Жанр: Фантастика, боевик, комедия, приключения
    Продолжительность: 01:48:06
    Перевод: Дублированный (iTunes)
    Оригинальная аудиодорожка: Есть
    Cубтитры: Русские форсированные, Английские форсированные, Украинские форсированные, Русские, Английские, Украинские
    Режиссёр: Тим Миллер
    Сценарий: Ретт Риз, Пол Верник, Фабиан Нициезе
    Продюсер: Саймон Кинберг, Райан Рейнольдс, Лорен Шулер Доннер
    Оператор: Кен Сенг
    Композитор: Джанки Экс-Эл
    Художник: Шон Хаворт, Грег Берри, Найджел Эванс
    Монтаж: Джулиан Кларк
    В ролях: Райан Рейнольдс, Морена Баккарин, Эд Скрейн, ТиДжей Миллер, Джина Карано, Брианна Хилдебранд, Стефан Капичич, Лесли Уггэмс, Джед Риис, Каран Сони
    Бюджет: $58 000 000
    Сборы в США: $361 834 375
    Сборы в мире: + $399 362 052 = $761 196 427
    Сборы в России: $26 120 904
    Мировая премьера: 21 января 2016
    Премьера (РФ): 11 февраля 2016, «Двадцатый Век Фокс СНГ»
    Описание: Уэйд Уилсон — наёмник. Будучи побочным продуктом программы вооружённых сил под названием «Оружие X», Уилсон приобрёл невероятную силу, проворство и способность к исцелению. Но страшной ценой: его клеточная структура постоянно меняется, а здравомыслие сомнительно. Всё, чего Уилсон хочет, — это держаться на плаву в социальной выгребной яме. Но течение в ней слишком быстрое.-Качество исходника: BDRemux (HDClub)
    Качество: BDRip
    Тип: HD (720p)
    Контейнер: M4V
    Видео: H.264, 1280x536, 2.40:1, 3 500 Kbps, 23.976 (24000/1001) fps
    Аудио 1: Русский/Дублированный (iTunes), AAC / 2.0 / 156 Kbps / 48.0 KHz
    Аудио 2: Английский/Оригинальная дорожка , AAC / 2.0 / 157 Kbps / 48.0 KHz
    Аудио 3: Украинский/Дублированный (iTunes), AAC / 2.0 / 156 Kbps / 48.0 KHz
    Аудио 4: Русский/Дублированный (iTunes), AC-3 / 5.1 / 384 Kbps / 48.0 KHz
    Аудио 5: Английский/Оригинальная дорожка , AC-3 / 5.1 / 640 Kbps / 48.0 KHz
    Субтитры 1: Русские форсированные
    Субтитры 2: Английские форсированные
    Субтитры 3: Украинские форсированные
    Субтитры 4: Русские полные
    Субтитры 5: Английские полные
    Субтитры 6: Украинские полные
    -

    iTunes Meta Tags

    Sort Name: Deadpool
    XID: Apple:vendor_id:2016-462360
    contentID: 1078111961
    Copyright: © 2016 Twentieth Century Fox Film Corporation. All rights reserved. MARVEL 2016 MARVEL
    Screenwriters: Ретт Риз, Пол Верник, Фабиан Нициезе
    Producers: Саймон Кинберг, Райан Рейнольдс, Лорен Шулер Доннер
    Director: Тим Миллер
    Cast: Райан Рейнольдс, Морена Баккарин, Эд Скрейн, ТиДжей Миллер, Джина Карано, Брианна Хилдебранд, Стефан Капичич, Лесли Уггэмс, Джед Риис, Каран Сони, Пётр Иващенко, Ульяна Чеботарь, Сергей Смирнов, Руслан Габидуллин, Ирина Киреева
    Studio: 20th Century Fox
    Rating: 5
    Long Description: Уэйд Уилсон - наёмник. Будучи побочным продуктом программы вооружённых сил под названием "Оружие X", Уилсон приобрёл невероятную силу, проворство и способность к исцелению. Но страшной ценой: его клеточная структура постоянно меняется, а здравомыслие сомнительно. Всё, чего Уилсон хочет, - это держаться на плаву в социальной выгребной яме. Но течение в ней слишком быстрое.
    Description: Уэйд Уилсон - наёмник. Будучи побочным продуктом программы вооружённых сил под названием "Оружие X", Уилсон приобрёл невероятную силу, проворство и способность к исцелению. Но страшной ценой: его клеточная структура постоянно меняется, а здравомыслие сомнительно. Всё, чего Уилсон хочет, - это держаться на плаву в социальной выгребной яме. Но течение в ней слишком быстрое.
    Release Date: 2016-01-21T08:00:00Z
    Genre: Action & Adventure
    Artist: Tim Miller
    Name: Deadpool

    MediaInfo

    General
    Complete name : /Users/imac/HandBrake/Deadpool (720p HD).m4v
    Format : MPEG-4
    Codec ID : M4V  (M4V /M4A /mp42/isom)
    File size : 3.77 GiB
    Duration : 1h 48mn
    Overall bit rate mode : Variable
    Overall bit rate : 4 991 Kbps
    Movie name : Deadpool
    Performer : Tim Miller
    Director : Тим Миллер
    Actor : Райан Рейнольдс / Морена Баккарин / Эд Скрейн / ТиДжей Миллер / Джина Карано / Брианна Хилдебранд / Стефан Капичич / Лесли Уггэмс / Джед Риис / Каран Сони / Пётр Иващенко / Ульяна Чеботарь / Сергей Смирнов / Руслан Габидуллин / Ирина Киреева
    Screenplay by : Ретт Риз / Пол Верник / Фабиан Нициезе
    Producer : Саймон Кинберг / Райан Рейнольдс / Лорен Шулер Доннер
    Production studio : 20th Century Fox
    Genre : Action & Adventure
    ContentType : Short Film
    Description : Уэйд Уилсон - наёмник. Будучи побочным продуктом программы вооружённых сил под названием "Оружие X", Уилсон приобрёл невероятную силу, проворство и способность к исцелению. Но страшной ценой: его клеточная структура постоянно меняется, а здравомыслие сомнительно. Всё, чего Уилсон хочет, - это держаться на плаву в социальной выгребной яме. Но течение в ней слишком быстрое.
    Recorded date : UTC 2016-01-21 08:00:00
    Encoded date : UTC 2016-05-02 09:00:11
    Tagged date : UTC 2016-05-02 09:02:33
    Copyright : © 2016 Twentieth Century Fox Film Corporation. All rights reserved. MARVEL 2016 MARVEL
    Cover : Yes
    Rating : None
    Title/Sort : Deadpool
    LongDescription : Уэйд Уилсон - наёмник. Будучи побочным продуктом программы вооружённых сил под названием "Оружие X", Уилсон приобрёл невероятную силу, проворство и способность к исцелению. Но страшной ценой: его клеточная структура постоянно меняется, а здравомыслие сомнительно. Всё, чего Уилсон хочет, - это держаться на плаву в социальной выгребной яме. Но течение в ней слишком быстрое.
    HDVideo : Yes
    AppleStoreCatalogID : 1078111961
    Vendor : Apple:vendor_id:2016-462360
    ContentRating : mpaa|R|400|
    Video #1
    ID : 1
    Format : AVC
    Format/Info : Advanced Video Codec
    Format profile : High@L3.1
    Format settings, CABAC : No
    Format settings, ReFrames : 3 frames
    Codec ID : avc1
    Codec ID/Info : Advanced Video Coding
    Duration : 1h 48mn
    Source duration : 1h 48mn
    Bit rate : 3 500 Kbps
    Width : 1 280 pixels
    Height : 536 pixels
    Display aspect ratio : 2.40:1
    Frame rate mode : Variable
    Frame rate : 23.976 (24000/1001) fps
    Minimum frame rate : 23.974 fps
    Maximum frame rate : 23.981 fps
    Color space : YUV
    Chroma subsampling : 4:2:0
    Bit depth : 8 bits
    Scan type : Progressive
    Bits/(Pixel*Frame) : 0.213
    Stream size : 2.63 GiB (70%)
    Source stream size : 2.63 GiB (70%)
    Title : Main Program
    Writing library : x264 core 142 r2479 dd79a61
    Encoding settings : cabac=0 / ref=3 / deblock=1:-3:-3 / analyse=0x3:0x113 / me=umh / subme=9 / psy=1 / psy_rd=1.00:0.15 / mixed_ref=1 / me_range=32 / chroma_me=1 / trellis=0 / 8x8dct=1 / cqm=0 / deadzone=21,11 / fast_pskip=0 / chroma_qp_offset=-2 / threads=36 / lookahead_threads=3 / sliced_threads=0 / nr=0 / decimate=0 / interlaced=0 / bluray_compat=0 / constrained_intra=0 / bframes=3 / b_pyramid=0 / b_adapt=2 / b_bias=0 / direct=1 / weightb=0 / open_gop=0 / weightp=0 / keyint=240 / keyint_min=24 / scenecut=40 / intra_refresh=0 / rc_lookahead=40 / rc=2pass / mbtree=1 / bitrate=3500 / ratetol=1.0 / qcomp=0.65 / qpmin=0 / qpmax=69 / qpstep=4 / cplxblur=20.0 / qblur=0.5 / vbv_maxrate=9500 / vbv_bufsize=9500 / nal_hrd=none / filler=0 / ip_ratio=1.40 / aq=1:1.10
    Language : English
    Encoded date : UTC 2016-05-02 09:00:11
    Tagged date : UTC 2016-05-02 09:00:16
    Color range : Limited
    Color primaries : BT.709
    Transfer characteristics : BT.709
    Matrix coefficients : BT.709
    Menus : 13,14
    Video #2
    ID : 14
    Format : JPEG
    Codec ID : jpeg
    Duration : 1h 48mn
    Bit rate mode : Variable
    Bit rate : 1 142 bps
    Width : 640 pixels
    Height : 268 pixels
    Display aspect ratio : 2.40:1
    Frame rate mode : Variable
    Frame rate : 0.004 fps
    Minimum frame rate : 0.002 fps
    Maximum frame rate : 0.009 fps
    Color space : YUV
    Chroma subsampling : 4:2:0
    Bit depth : 8 bits
    Compression mode : Lossy
    Bits/(Pixel*Frame) : 1.665
    Stream size : 976 KiB (0%)
    Title : Chapter Images
    Language : English
    Default : No
    Encoded date : UTC 2016-05-02 09:01:25
    Tagged date : UTC 2016-05-02 09:01:26
    Menu For : 1
    Audio #1
    ID : 2
    Format : AAC
    Format/Info : Advanced Audio Codec
    Format profile : LC
    Codec ID : 40
    Duration : 1h 48mn
    Bit rate mode : Variable
    Bit rate : 156 Kbps
    Maximum bit rate : 224 Kbps
    Channel(s) : 2 channels
    Channel positions : Front: L R
    Sampling rate : 48.0 KHz
    Frame rate : 46.875 fps (1024 spf)
    Compression mode : Lossy
    Stream size : 121 MiB (3%)
    Title : Russian Stereo
    Language : Russian
    Default : Yes
    Alternate group : 1
    Encoded date : UTC 2016-05-02 09:00:11
    Tagged date : UTC 2016-05-02 09:01:19
    Fallback From : 5
    Subtitles : 7,10
    Audio #2
    ID : 3
    Format : AAC
    Format/Info : Advanced Audio Codec
    Format profile : LC
    Codec ID : 40
    Duration : 1h 48mn
    Bit rate mode : Variable
    Bit rate : 157 Kbps
    Maximum bit rate : 251 Kbps
    Channel(s) : 2 channels
    Channel positions : Front: L R
    Sampling rate : 48.0 KHz
    Frame rate : 46.875 fps (1024 spf)
    Compression mode : Lossy
    Stream size : 121 MiB (3%)
    Title : English Stereo
    Language : English
    Default : No
    Alternate group : 1
    Encoded date : UTC 2016-05-02 09:00:11
    Tagged date : UTC 2016-05-02 09:01:19
    Fallback From : 6
    Subtitles : 8,11
    Audio #3
    ID : 4
    Format : AAC
    Format/Info : Advanced Audio Codec
    Format profile : LC
    Codec ID : 40
    Duration : 1h 48mn
    Bit rate mode : Variable
    Bit rate : 156 Kbps
    Maximum bit rate : 255 Kbps
    Channel(s) : 2 channels
    Channel positions : Front: L R
    Sampling rate : 48.0 KHz
    Frame rate : 46.875 fps (1024 spf)
    Compression mode : Lossy
    Stream size : 121 MiB (3%)
    Title : Ukrainian Stereo
    Language : Ukrainian
    Default : No
    Alternate group : 1
    Encoded date : UTC 2016-05-02 09:00:11
    Tagged date : UTC 2016-05-02 09:01:19
    Subtitles : 9,12
    Audio #4
    ID : 5
    Format : AC-3
    Format/Info : Audio Coding 3
    Mode extension : CM (complete main)
    Format settings, Endianness : Big
    Codec ID : ac-3
    Duration : 1h 48mn
    Bit rate mode : Constant
    Bit rate : 384 Kbps
    Channel(s) : 6 channels
    Channel positions : Front: L C R, Side: L R, LFE
    Sampling rate : 48.0 KHz
    Frame rate : 31.250 fps (1536 spf)
    Bit depth : 16 bits
    Compression mode : Lossy
    Stream size : 297 MiB (8%)
    Title : Russian DD 5.1
    Language : Russian
    Default : Inherited From: 2
    Alternate group : 1
    Encoded date : UTC 2016-05-02 09:00:11
    Tagged date : UTC 2016-05-02 09:01:19
    Fallback To : 2
    Subtitles : 7,10
    Audio #5
    ID : 6
    Format : AC-3
    Format/Info : Audio Coding 3
    Mode extension : CM (complete main)
    Format settings, Endianness : Big
    Codec ID : ac-3
    Duration : 1h 48mn
    Bit rate mode : Constant
    Bit rate : 640 Kbps
    Channel(s) : 6 channels
    Channel positions : Front: L C R, Side: L R, LFE
    Sampling rate : 48.0 KHz
    Frame rate : 31.250 fps (1536 spf)
    Bit depth : 16 bits
    Compression mode : Lossy
    Stream size : 495 MiB (13%)
    Title : English DD 5.1
    Language : English
    Default : No
    Alternate group : 1
    Encoded date : UTC 2016-05-02 09:00:11
    Tagged date : UTC 2016-05-02 09:01:19
    Fallback To : 3
    Subtitles : 8,11
    Text #1
    ID : 7
    Format : Timed Text
    Muxing mode : sbtl
    Codec ID : tx3g
    Duration : 1h 48mn
    Bit rate mode : Variable
    Bit rate : 0 bps
    Stream size : 61.0 Bytes (0%)
    Title : Russian forced
    Language : Russian
    Default : Yes
    Forced : Yes
    Alternate group : 2
    Encoded date : UTC 2016-05-02 09:00:11
    Tagged date : UTC 2016-05-02 09:00:52
    Subtitles For : 2,5
    Full Alternative : 10
    Text #2
    ID : 8
    Format : Timed Text
    Muxing mode : sbtl
    Codec ID : tx3g
    Duration : 1h 2mn
    Bit rate : 0 bps
    Stream size : 2.00 Bytes (0%)
    Title : English forced
    Language : English
    Default : No
    Forced : Yes
    Alternate group : 2
    Encoded date : UTC 2016-05-02 09:00:11
    Tagged date : UTC 2016-05-02 09:00:11
    Subtitles For : 3,6
    Full Alternative : 11
    Text #3
    ID : 9
    Format : Timed Text
    Muxing mode : sbtl
    Codec ID : tx3g
    Duration : 1h 48mn
    Bit rate mode : Variable
    Bit rate : 1 bps
    Stream size : 547 Bytes (0%)
    Title : Ukrainian forced
    Language : Ukrainian
    Default : No
    Forced : Yes
    Alternate group : 2
    Encoded date : UTC 2016-05-02 09:00:11
    Tagged date : UTC 2016-05-02 09:00:52
    Subtitles For : 4
    Full Alternative : 12
    Text #4
    ID : 10
    Format : Timed Text
    Muxing mode : sbtl
    Codec ID : tx3g
    Duration : 1h 47mn
    Bit rate mode : Variable
    Bit rate : 96 bps
    Stream size : 76.2 KiB (0%)
    Title : Russian full
    Language : Russian
    Default : No
    Forced : No
    Alternate group : 2
    Encoded date : UTC 2016-05-02 09:00:11
    Tagged date : UTC 2016-05-02 09:01:19
    Subtitles For : 2,5
    Forced Alternative : 7
    Text #5
    ID : 11
    Format : Timed Text
    Muxing mode : sbtl
    Codec ID : tx3g
    Duration : 1h 47mn
    Bit rate mode : Variable
    Bit rate : 66 bps
    Stream size : 52.0 KiB (0%)
    Title : English full
    Language : English
    Default : No
    Forced : No
    Alternate group : 2
    Encoded date : UTC 2016-05-02 09:00:11
    Tagged date : UTC 2016-05-02 09:01:19
    Subtitles For : 3,6
    Forced Alternative : 8
    Text #6
    ID : 12
    Format : Timed Text
    Muxing mode : sbtl
    Codec ID : tx3g
    Duration : 1h 48mn
    Bit rate mode : Variable
    Bit rate : 99 bps
    Stream size : 78.1 KiB (0%)
    Title : Ukrainian full
    Language : Ukrainian
    Default : No
    Forced : No
    Alternate group : 2
    Encoded date : UTC 2016-05-02 09:00:11
    Tagged date : UTC 2016-05-02 09:01:19
    Subtitles For : 4
    Forced Alternative : 9
    Menu #1
    00:00:00.000 : Chapter 1
    00:03:04.810 : Chapter 2
    00:05:53.103 : Chapter 3
    00:09:30.904 : Chapter 4
    00:13:18.214 : Chapter 5
    00:16:48.799 : Chapter 6
    00:20:12.628 : Chapter 7
    00:22:06.492 : Chapter 8
    00:27:08.877 : Chapter 9
    00:31:59.042 : Chapter 10
    00:36:50.875 : Chapter 11
    00:41:06.255 : Chapter 12
    00:44:45.850 : Chapter 13
    00:46:56.689 : Chapter 14
    00:50:11.050 : Chapter 15
    00:53:18.112 : Chapter 16
    00:55:33.121 : Chapter 17
    00:59:07.836 : Chapter 18
    01:03:05.323 : Chapter 19
    01:07:06.522 : Chapter 20
    01:09:15.651 : Chapter 21
    01:12:29.804 : Chapter 22
    01:16:46.477 : Chapter 23
    01:20:43.088 : Chapter 24
    01:25:53.482 : Chapter 25
    01:31:03.124 : Chapter 26
    01:34:46.347 : Chapter 27
    01:39:52.820 : Chapter 28
    Menu #2
    ID : 13
    Codec ID : text
    Duration : 1h 48mn
    Language : English
    Encoded date : UTC 2016-05-02 09:01:19
    Tagged date : UTC 2016-05-02 09:01:19
    Menu For : 1
    00:00:00.000 : Chapter 1
    00:03:04.810 : Chapter 2
    00:05:53.103 : Chapter 3
    00:09:30.904 : Chapter 4
    00:13:18.214 : Chapter 5
    00:16:48.799 : Chapter 6
    00:20:12.628 : Chapter 7
    00:22:06.492 : Chapter 8
    00:27:08.877 : Chapter 9
    00:31:59.042 : Chapter 10
    00:36:50.875 : Chapter 11
    00:41:06.255 : Chapter 12
    00:44:45.850 : Chapter 13
    00:46:56.689 : Chapter 14
    00:50:11.050 : Chapter 15
    00:53:18.112 : Chapter 16
    00:55:33.121 : Chapter 17
    00:59:07.836 : Chapter 18
    01:03:05.323 : Chapter 19
    01:07:06.522 : Chapter 20
    01:09:15.651 : Chapter 21
    01:12:29.804 : Chapter 22
    01:16:46.477 : Chapter 23
    01:20:43.088 : Chapter 24
    01:25:53.482 : Chapter 25
    01:31:03.124 : Chapter 26
    01:34:46.347 : Chapter 27
    01:39:52.820 : Chapter 28
    Bit rate mode : VBR

    x264 лог

    x264 [info]: frame I:1865  Avg QP:15.68  size: 91198
    x264 [info]: frame P:58980 Avg QP:17.95  size: 29606
    x264 [info]: frame B:94669 Avg QP:19.55  size:  9614
    x264 [info]: consecutive B-frames:  5.3% 33.6% 21.3% 39.8%
    x264 [info]: mb I  I16..4:  7.2% 62.1% 30.7%
    x264 [info]: mb P  I16..4:  2.5%  8.4%  3.3%  P16..4: 45.6% 24.0%  9.4%  0.0%  0.0%    skip: 6.8%
    x264 [info]: mb B  I16..4:  0.2%  1.1%  0.4%  B16..8: 46.6% 10.9%  1.6%  direct: 4.6%  skip:34.6%  L0:41.3% L1:51.6% BI: 7.1%
    x264 [info]: 8x8 transform intra:60.5% inter:46.7%
    x264 [info]: coded y,uvDC,uvAC intra: 80.9% 76.4% 49.5% inter: 25.8% 20.4% 9.8%
    x264 [info]: i16 v,h,dc,p: 41% 15%  8% 36%
    x264 [info]: i8 v,h,dc,ddl,ddr,vr,hd,vl,hu: 11%  8%  5% 11% 15% 14% 14% 11% 11%
    x264 [info]: i4 v,h,dc,ddl,ddr,vr,hd,vl,hu: 10%  9%  4% 12% 17% 15% 14% 10%  9%
    x264 [info]: i8c dc,h,v,p: 50% 18% 19% 12%
    x264 [info]: ref P L0: 72.0% 16.8% 11.2%
    x264 [info]: ref B L0: 79.8% 20.2%
    x264 [info]: kb/s:3486.00

    Скриншоты

    -

    Релиз подготовлен для просмотра на Apple TV, iPad, iPhone, iPod Touch.
    Для просмотра данного релиза на компьютере с ОС Windows рекомендуется использовать VLC media player
    Скачать .torrent

    Скачать торрент-файл бесплатно и на максимальной скорости!

    Как скачивать? · Что такое торрент? · Рейтинг и ограничения

    !ВНИМАНИЕ!
    Сайт не распространяет и не хранит электронные версии произведений, а занимается лишь лишь предоставлением доступа к создаваемому пользователями каталогу ссылок на торрент-файлы, которые содержат только списки хеш-сумм, убедительная просьба с жалобами обращаться напрямую к пользователю. Файлы для обмена на трекере предоставлены пользователями сайта, и администрация не несёт ответственности за их содержание. Просьба не заливать файлы, защищенные авторскими правами, а также файлы нелегального содержания!


    _________________
    [Профиль] [ЛС]
    Показать сообщения:    
    Ответить на тему

    Текущее время: Сегодня, в 08:18

    Часовой пояс: GMT + 2



    Вы не можете начинать темы
    Вы не можете отвечать на сообщения
    Вы не можете редактировать свои сообщения
    Вы не можете удалять свои сообщения
    Вы не можете голосовать в опросах
    Вы не можете прикреплять файлы к сообщениям
    Вы не можете скачивать файлы