BitTorrentTracker PerecTracker.org
BitTorrentTracker PerecTracker.org
    
Регистрация  ·  Вход
 
 · 
Забыли пароль?

  • Падение / The Falling (Кэрол Морли / Carol Morley) [2014, Великобритания, драма, детектив, HDRip] MVO + Sub Eng + Original Eng

    Ответить на тему
     
    Автор Сообщение

    Light

    Создавать темы 01-Июн-2016 09:51

           

    [Цитировать]

    Падение / The Falling
    Страна: Великобритания
    Жанр: драма, детектив
    Год выпуска: 2014
    Продолжительность: 01:42:00
    Перевод: Профессиональный (многоголосый закадровый)
    Cубтитры: английские
    Оригинальная аудиодорожка: английский
    Режиссер: Кэрол Морли / Carol Morley
    В ролях: Мэйси Уильямс, Флоренс Пью, Грета Скакки, Моника Долан, Максин Пик, Анна Барнетт, Роуз Кэтон, Лорен МакКрости, Кэти Найт, Эви Хутон
    Описание: 1969 год, Англия. Лидия и Эбби — лучшие подруги и учащиеся школы для девочек. Лидия, страдающая агорафобией, очень привязывается к Эбби, которая находится на стадии исследования своей сексуальности. Внезапно Лидия начинает страдать от обмороков, как и все остальные девушки в школе. Она полна решимости обнаружить причину этой «эпидемии», призвав администрацию школы принять меры...

    Сэмпл: http://multi-up.com/1103508
    Качество видео: HDRip
    Формат видео: AVI
    Видео: 720x384 (1.88:1), 24 fps, XviD build 64 ~2222 kbps avg, 0.34 bit/pixel
    Аудио: 48 kHz, AC3 Dolby Digital, 2/0 (L,R) ch, ~192 kbps - MVO
    Аудио 2: 48 kHz, AC3 Dolby Digital, 3/2 (L,C,R,l,r) + LFE ch, ~448 kbps - eng. (оригинал)
    Формат субтитров: softsub (SRT)

    MediaInfo

    Общее
    Полное имя : D:\The.Falling_2014.HDRip\The.Falling_2014.HDRip.avi
    Формат : AVI
    Формат/Информация : Audio Video Interleave
    Профиль формата : OpenDML
    Размер файла : 2,04 Гбайт
    Продолжительность : 1 ч. 42 м.
    Общий поток : 2869 Кбит/сек
    Программа кодирования : VirtualDubModRus 1.5.10.2 (build 2542/release)
    Библиотека кодирования : VirtualDubMod build 2542/release
    Видео
    Идентификатор : 0
    Формат : xvid
    Идентификатор кодека : xvid
    Продолжительность : 1 ч. 42 м.
    Битрейт : 2217 Кбит/сек
    Ширина : 720 пикселей
    Высота : 384 пикселя
    Соотношение сторон : 1,85:1
    Частота кадров : 24,000 кадра/сек
    Тип развёртки : Прогрессивная
    Бит/(Пиксели*Кадры) : 0.334
    Размер потока : 1,58 Гбайт (77%)
    Аудио #1
    Идентификатор : 1
    Формат : AC-3
    Формат/Информация : Audio Coding 3
    Расширение режима : CM (complete main)
    Параметр Endianness формата : Big
    Идентификатор кодека : 2000
    Продолжительность : 1 ч. 42 м.
    Вид битрейта : Постоянный
    Битрейт : 192 Кбит/сек
    Каналы : 2 канала
    Расположение каналов : Front: L R
    Частота : 48,0 КГц
    Частота кадров : 31,250 кадров/сек (1536 spf)
    Битовая глубина : 16 бит
    Метод сжатия : С потерями
    Размер потока : 140 Мбайт (7%)
    Выравнивание : Соединение по промежуткам
    Продолжительность промежутка : 160 мс. (3,84 видеокадра)
    Время предзагрузки промежутка : 640 мс.
    Аудио #2
    Идентификатор : 2
    Формат : AC-3
    Формат/Информация : Audio Coding 3
    Расширение режима : CM (complete main)
    Параметр Endianness формата : Big
    Идентификатор кодека : 2000
    Продолжительность : 1 ч. 42 м.
    Вид битрейта : Постоянный
    Битрейт : 448 Кбит/сек
    Каналы : 6 каналов
    Расположение каналов : Front: L C R, Side: L R, LFE
    Частота : 48,0 КГц
    Частота кадров : 31,250 кадров/сек (1536 spf)
    Битовая глубина : 16 бит
    Метод сжатия : С потерями
    Размер потока : 327 Мбайт (16%)
    Выравнивание : Разделение по промежуткам
    Продолжительность промежутка : 69 мс. (1,65 видеокадра)
    Время предзагрузки промежутка : 548 мс.

    Скриншот c названием фильма

    Скриншоты

    Скачать .torrent

    Скачать торрент-файл бесплатно и на максимальной скорости!

    Как скачивать? · Что такое торрент? · Рейтинг и ограничения

    !ВНИМАНИЕ!
    Сайт не распространяет и не хранит электронные версии произведений, а занимается лишь лишь предоставлением доступа к создаваемому пользователями каталогу ссылок на торрент-файлы, которые содержат только списки хеш-сумм, убедительная просьба с жалобами обращаться напрямую к пользователю. Файлы для обмена на трекере предоставлены пользователями сайта, и администрация не несёт ответственности за их содержание. Просьба не заливать файлы, защищенные авторскими правами, а также файлы нелегального содержания!


    _________________
    [Профиль] [ЛС]
    Показать сообщения:    
    Ответить на тему

    Текущее время: Сегодня, в 12:51

    Часовой пояс: GMT + 2



    Вы не можете начинать темы
    Вы не можете отвечать на сообщения
    Вы не можете редактировать свои сообщения
    Вы не можете удалять свои сообщения
    Вы не можете голосовать в опросах
    Вы не можете прикреплять файлы к сообщениям
    Вы не можете скачивать файлы