BitTorrentTracker PerecTracker.org
BitTorrentTracker PerecTracker.org
    
Регистрация  ·  Вход
 
 · 
Забыли пароль?

  • Микке и Вероника / Micke & Veronica (Стаффан Линдберг / Staffan Lindberg) [2014, Швеция, Комедия, DVDRip] Sub Rus + Original Swe

    Ответить на тему
     
    Автор Сообщение

    Light

    Создавать темы 01-Июн-2016 09:51

           

    [Цитировать]

    Микке и Вероника / Micke & Veronica
    Страна: Швеция
    Жанр: Комедия
    Год выпуска: 2014
    Продолжительность: 01:34:51
    Перевод: Субтитры Ali+sher
    Cубтитры: русские
    Оригинальная аудиодорожка: шведский
    Режиссер: Стаффан Линдберг / Staffan Lindberg
    В ролях: Изабелла Скорупко, Давид Хеллениус, Клас Юнгмарк, Филип Санден, Сесилия Юнг, Петер Магнуссон.
    Описание: Вероника, девушка из высшего общества и успешный врач, влюбляется в столяра Микке, который должен был делать ремонт в её квартире. Отношения развиваются стремительно, но у каждого из них есть ребенок-подросток от первого брака. Микке и Вероника используют подвернувшуюся возможность снять домик у моря, чтобы провести отпуск вместе с детьми и потренироваться быть семьёй.
    IMDb
    Сэмпл тут
    Качество видео: DVDRip
    Формат видео: AVI
    Видео: 688x368 (1.87:1), 25 fps, XviD MPEG-4 ~1602 kbps avg, 0.25 bit/pixel
    Аудио: 48 kHz, AC3 Dolby Digital, 3/2 (L,C,R,l,r) + LFE ch, ~448 kbps
    Релиз:

    MediaInfo

    Общее
    Полное имя : C:\SvFi\Micke och Veronica.2014.SWEDiSH
    Формат : AVI
    Формат/Информация : Audio Video Interleave
    Размер файла : 1,37 Гбайт
    Продолжительность : 1 ч. 34 м.
    Общий поток : 2060 Кбит/сек
    Программа кодирования : FairUse Wizard - http://fairusewizard.com
    Библиотека кодирования : The best and REALLY easy backup tool
    Видео
    Идентификатор : 0
    Формат : MPEG-4 Visual
    Профиль формата : Advanced Simple@L5
    Параметр BVOP формата : 1
    Параметр QPel формата : Нет
    Параметр GMC формата : Без точки перехода
    Параметр матрицы формата : Default (MPEG)
    Режим смешивания : Сжатый битовый поток
    Идентификатор кодека : XVID
    Идентификатор кодека/Подсказка : XviD
    Продолжительность : 1 ч. 34 м.
    Битрейт : 1603 Кбит/сек
    Ширина : 688 пикселей
    Высота : 368 пикселей
    Соотношение сторон : 1,85:1
    Частота кадров : 25,000 кадров/сек
    Цветовое пространство : YUV
    Субдискретизация насыщенности : 4:2:0
    Битовая глубина : 8 бит
    Тип развёртки : Прогрессивная
    Метод сжатия : С потерями
    Бит/(Пиксели*Кадры) : 0.253
    Размер потока : 1,06 Гбайт (78%)
    Библиотека кодирования : XviD 1.2.0.dev47 (UTC 2006-11-01)
    Аудио
    Идентификатор : 1
    Формат : AC-3
    Формат/Информация : Audio Coding 3
    Расширение режима : CM (complete main)
    Параметр Endianness формата : Big
    Идентификатор кодека : 2000
    Продолжительность : 1 ч. 34 м.
    Вид битрейта : Постоянный
    Битрейт : 448 Кбит/сек
    Каналы : 6 каналов
    Расположение каналов : Front: L C R, Side: L R, LFE
    Частота : 48,0 КГц
    Битовая глубина : 16 бит
    Метод сжатия : С потерями
    Размер потока : 304 Мбайт (22%)
    Выравнивание : Разделение по промежуткам
    Продолжительность промежутка : 40 мс. (1,00 видеокадр)
    Время предзагрузки промежутка : 500 мс.

    Скриншот c названием фильма

    Скриншоты

    Пример субтитров

    16
    00:01:27,200 --> 00:01:31,320
    - Всё пришло в негодность, пора менять.
    - Дорого получится?
    17
    00:01:31,400 --> 00:01:36,000
    Конечно. Но я не собираюсь рассказывать,
    сколько это будет стоить.
    18
    00:01:36,080 --> 00:01:38,640
    Мне тоже надо сделать ремонт.
    19
    00:01:50,720 --> 00:01:55,800
    Вероника? Ну... Я...
    20
    00:01:56,800 --> 00:02:01,560
    - У меня сегодня свидание.
    - Круто. Я его знаю?
    21
    00:02:01,640 --> 00:02:06,760
    Нет, на этот раз это парень
    из интернета.
    22
    00:02:06,840 --> 00:02:11,560
    Ну ты крута. Я никогда бы не решилась
    снова начать с кем-нибудь встречаться.
    23
    00:02:11,640 --> 00:02:16,120
    - А не хочешь ли ты пойти со мной?
    - Это ещё зачем?
    24
    00:02:16,200 --> 00:02:19,920
    Если что-то пойдет не так,
    я хочу иметь возможность смыться.
    25
    00:02:20,000 --> 00:02:24,080
    Я подумала,
    что если мы пойдем вместе...
    26
    00:02:24,160 --> 00:02:29,600
    Я сяду, присмотрюсь, не псих
    ли он. Если псих, я подам тебе знак.
    27
    00:02:29,680 --> 00:02:33,160
    Тогда ты скажешь, что мне срочно надо
    домой, потому что моя мама больна.
    28
    00:02:33,240 --> 00:02:39,760
    - Как ты до этого додумалась? Это глупость.
    - Прочла на сайте "если-он-псих.com"
    29
    00:03:19,360 --> 00:03:23,600
    - Здравствуйте, вы, наверное, меня ждете.
    - Да, точно. Хорошо.
    30
    00:03:23,680 --> 00:03:27,440
    - Вероника.
    - Микке. Столяр.
    31
    00:03:27,520 --> 00:03:32,400
    Я поняла. Пойдемте смотреть кухню?
    32
    00:03:33,720 --> 00:03:37,960
    А столешницы вы
    из какого материала хотите?
    33
    00:03:38,040 --> 00:03:44,360
    Думаю, это очень красивое сочетание:
    известняк и мромор. Интересный контраст.
    34
    00:03:44,440 --> 00:03:49,480
    - Ага. Ясно...
    - А вам так не кажется?
    35
    00:03:49,560 --> 00:03:56,320
    От дерева как-то теплее на душе.
    Но решать конечно же вам.
    36
    00:03:56,400 --> 00:04:01,720
    Я довольно холодная натура,
    поэтому остановлюсь на мраморе.
    37
    00:04:04,840 --> 00:04:10,160
    Значит, будет у вас мрамор.
    У меня дома только дерево.
    Скачать .torrent

    Скачать торрент-файл бесплатно и на максимальной скорости!

    Как скачивать? · Что такое торрент? · Рейтинг и ограничения

    !ВНИМАНИЕ!
    Сайт не распространяет и не хранит электронные версии произведений, а занимается лишь лишь предоставлением доступа к создаваемому пользователями каталогу ссылок на торрент-файлы, которые содержат только списки хеш-сумм, убедительная просьба с жалобами обращаться напрямую к пользователю. Файлы для обмена на трекере предоставлены пользователями сайта, и администрация не несёт ответственности за их содержание. Просьба не заливать файлы, защищенные авторскими правами, а также файлы нелегального содержания!


    _________________
    [Профиль] [ЛС]
    Показать сообщения:    
    Ответить на тему

    Текущее время: Сегодня, в 23:18

    Часовой пояс: GMT + 2



    Вы не можете начинать темы
    Вы не можете отвечать на сообщения
    Вы не можете редактировать свои сообщения
    Вы не можете удалять свои сообщения
    Вы не можете голосовать в опросах
    Вы не можете прикреплять файлы к сообщениям
    Вы не можете скачивать файлы