BitTorrentTracker PerecTracker.org
BitTorrentTracker PerecTracker.org
    
Регистрация  ·  Вход
 
 · 
Забыли пароль?

  • Не будь злым / Non essere cattivo (Клаудио Калигари / Claudio Caligari) [2015, Италия, драма, криминал, DVDRip] VO (Сибирский)

    Ответить на тему
     
    Автор Сообщение

    Light

    Создавать темы 01-Июн-2016 09:51

           

    [Цитировать]

    Не будь злым / Non essere cattivoГод выпуска: 2015
    Страна: Италия | |
    Жанр: драма, криминал
    Продолжительность: 01:38:13
    Перевод: Одноголосый закадровый - Сибирский
    Субтитры: нет
    Режиссер: Клаудио Калигари / Claudio Caligari
    Сценарий: Клаудио Калигари / Claudio Caligari, Francesca Serafini, Giordano Meacci
    Продюсер: Paolo Bogna, Симона Изола / Simone Isola, Andrea Leone, Пьетро Вальсекки / Pietro Valsecchi, Simona Giacci
    Оператор: Маурицио Кальвези / Maurizio Calvesi
    Композитор: Alessandro Sartini
    В ролях: Лука Маринелли (Cesare), Алессандро Борги (Vittorio), Роберта Маттеи (Linda), Сильвия д’Амико (Viviana), Alessandro Bernardini (Brutto), Валентино Кампителли (Grasso), Danilo Cappanelli (Lungo), Manuel Rulli (Corto), Emanuela Fanelli (Smandrappata), Джулия Греко (Smandrappata), Claudia Ianniello (Smandrappata), Элизабетта Де Вито (Madre di Cesare)-Мировая премьера: 7 сентября 2015-

    Описание: Остия, предместья Рима, 1995 год. Здесь живут Чезаре и Витторио, два друга детства, оба выходцы из небогатых семей, которые живут, ударяясь в крайности, проводят свои дни и ночи между ночными клубами, наркотиками, алкоголем. Каждый из них ищет успеха, но, как показывают дальнейшие события, для каждого из них этот самый успех заключается в совсем разных вещах. Фильм «Не будь злым» снискал признание критиков и большой успех на кинофестивале в Венеции, где картина получила 8 призов, в том числе Премию Пазинетти за лучший фильм и лучшему актеру, исполнителю роли Чезаре Лука Маринелли. В роли Витторио в картине предстал Алессандро Борги. Режиссер Клаудио Калигари, создавая свой фильм, представлял его как своего рода третью часть трилогии. Первым фильмом он видел ленту выдающегося итальянского режиссера Пьера Паоло Пазолини «Аккатоне», чье зверское убийство на пляже в Остии в 1975 году до сих пор остается нераскрытым, второй картиной – собственную криминальную драму «Токсичная любовь», где действие разворачивается в тех же местах и при тех же обстоятельствах. Имя главного героя, Витторио, является отсылкой к имени главного персонажа «Аккатоне», в то время, как Чезаре звали ведущего героя из «Токсичной любви».
    Клаудио Калигари не дожил до премьеры своей картины – он умер почти сразу по завершении съемок.
    -Рейтинг
    : — (13)
    imdb.com: 7.30 (932)
    -Качество: DVDRip (Cпасибо Сибирский)
    Формат: AVI ///СОВМЕСТИМО С БЫТОВЫМИ ПЛЕЕРАМИ///
    Размер : 1/3 DVD-R
    Видео: 720x304 (2.37:1), 25 fps, XviD build 67 ~1666 kbps avg, 0.30 bit/pixel //SAMPLE//
    Аудио: 48 kHz, AC3 Dolby Digital, 3/2 (L,C,R,l,r) + LFE ch, ~448 kbps - RUS - VO (Сибирский)

    MediaInfo

    GeneralComplete name : C:\Ne.Bud.Zlym.2015.XviD.DVDRip.-Allfilms.aviFormat : AVIFormat/Info : Audio Video InterleaveFile size : 1.46 GiBDuration : 1h 38mnOverall bit rate : 2 125 KbpsMovie name : Не будь злым / Non essere cattivo [2015] DVDRip - All FilmsDirector : ЮpистGenre : драма, криминалWriting application : VirtualDubMod 1.5.10.3 | www.virtualdub-fr.org || (build 2550/release)Writing library : VirtualDubMod build 2550/releaseCopyright : RG All Films [perectracker.org]Comment : Остия, предместья Рима, 1995 год. Здесь живут Чезаре и Витторио, два друга детства, оба выходцы из небогатых семей, которые живут, ударяясь в крайности, проводят свои дни и ночи между ночными клубами, наркотиками, алкоголем. Каждый из них ищет успеха, но, как показывают дальнейшие события, для каждого из них этот самый успех заключается в совсем разных вещах.
    VideoID : 0Format : MPEG-4 VisualFormat profile : Advanced Simple@L5Format settings, BVOP : 1Format settings, QPel : NoFormat settings, GMC : No warppointsFormat settings, Matrix : CustomCodec ID : XVIDCodec ID/Hint : XviDDuration : 1h 38mnBit rate : 1 667 KbpsWidth : 720 pixelsHeight : 304 pixelsDisplay aspect ratio : 2.35:1Frame rate : 25.000 fpsColor space : YUVChroma subsampling : 4:2:0Bit depth : 8 bitsScan type : ProgressiveCompression mode : LossyBits/(Pixel*Frame) : 0.305Stream size : 1.14 GiB (78%)Writing library : XviD 67
    AudioID : 1Format : AC-3Format/Info : Audio Coding 3Mode extension : CM (complete main)Format settings, Endianness : BigCodec ID : 2000Duration : 1h 38mnBit rate mode : ConstantBit rate : 448 KbpsChannel(s) : 6 channelsChannel positions : Front: L C R, Side: L R, LFESampling rate : 48.0 KHzFrame rate : 31.250 fps (1536 spf)Compression mode : LossyStream size : 315 MiB (21%)Alignment : Split accross interleavesInterleave, duration : 40 ms (1.00 video frame)Interleave, preload duratio : 500 msTitle : RUS - VO (Сибирский)

    -

    Скриншоты


    -
    -Огромное спасибо [url=profile.php?mode=viewprofile&u=13980964]dalemake[/url] за поддержку раздачи!-Релиз:
    Скачать .torrent

    Скачать торрент-файл бесплатно и на максимальной скорости!

    Как скачивать? · Что такое торрент? · Рейтинг и ограничения

    !ВНИМАНИЕ!
    Сайт не распространяет и не хранит электронные версии произведений, а занимается лишь лишь предоставлением доступа к создаваемому пользователями каталогу ссылок на торрент-файлы, которые содержат только списки хеш-сумм, убедительная просьба с жалобами обращаться напрямую к пользователю. Файлы для обмена на трекере предоставлены пользователями сайта, и администрация не несёт ответственности за их содержание. Просьба не заливать файлы, защищенные авторскими правами, а также файлы нелегального содержания!


    _________________
    [Профиль] [ЛС]
    Показать сообщения:    
    Ответить на тему

    Текущее время: Сегодня, в 04:34

    Часовой пояс: GMT + 2



    Вы не можете начинать темы
    Вы не можете отвечать на сообщения
    Вы не можете редактировать свои сообщения
    Вы не можете удалять свои сообщения
    Вы не можете голосовать в опросах
    Вы не можете прикреплять файлы к сообщениям
    Вы не можете скачивать файлы