BitTorrentTracker PerecTracker.org
BitTorrentTracker PerecTracker.org
    
Регистрация  ·  Вход
 
 · 
Забыли пароль?

  • Джеки и Райан / Jackie & Ryan / Love Me Like You Do (Эми Канаан Манн / Ami Canaan Mann) [2014, США, Мелодрама, драма, BDRip] MVO + AVO (Алексеев)

    Ответить на тему
     
    Автор Сообщение

    Light

    Создавать темы 01-Июн-2016 05:39

           

    [Цитировать]

    Джеки и Райан / Jackie & Ryan / Love Me Like You Do
    Страна: США
    Студия: Highland Film Group, 120dB Films, Electric Shadow Company, Mainstreet Films/982 Media, Xantara Film Capital
    Жанр: Мелодрама, драма
    Год выпуска: 2014
    Продолжительность: 01:31:04
    Перевод 1: Профессиональный (многоголосый закадровый)
    Перевод 2: Авторский (одноголосый закадровый) Антон Алексеев
    Cубтитры: нет
    Оригинальная аудиодорожка: нет
    Режиссер: Эми Канаан Манн / Ami Canaan Mann
    В ролях: Кэтрин Хайгл, Бен Барнс, Клеа ДюВалл, Эмили Элин Линд, Шерил Ли, Нэйтан Стивенс, Жак Грэй, Райан Бингхэм, Аллан Гров, Челси Гудвин, Джаред Шипли, Джеффри Хэнсон, Бен Хопкин, Карли Брошински, Хелен Лам, Кейт Холли, Адам Диетлейн, Синтия Армстронг, Клер Дювал, Фергюс Дэли, Энн Мари Дженсен, Демитрия Клайн, Аль Лампкин, Дилан Холли
    Описание: Райан - уличный бродяга, который зарабатывает тем, что путешествует по миру и исполняет песни на улицах под гитару. Он мечтает подписать контракт с музыкальной студией и начать новую жизнь. Однажды Райан приезжает в городок Огден и после своего уличного выступления становится свидетелем того, как симпатичная девушка Джеки попала под машину. Джеки - мать-одиночка, отчаянно пытающаяся добиться опеки над своей дочерью, справиться со своим бывшим богатым мужем и его армией адвокатов и попытаться забыть всё, что ей не так давно пришлось пережить. Она встретила Райана именно в тот момент жизни, когда это было больше всего необходимо. Постепенно герои становятся всё ближе, ведь их объединяет музыка и вера в лучшее будущее. Взаимное чувство, которое зарождается в их сердцах, помогает им не только преодолеть все сложности, но и навсегда изменить свои жизни в лучшую сторону.
    Дополнительная информация:
    Автор релиза - ylnian
    Заказ перевода у Антона Алексеева (май 2016) - ylnian
    За сборку дороги спасибо rammzez
    Источник для рипа - Blu-Ray (GER) - Love.me.like.you.do.2014.DUAL.COMPLETE.BLURAY-GMB


    Сэмпл: https://yadi.sk/i/w-j_slKcs8o7W
    Качество видео: BDRip
    Формат видео: AVI
    Видео: XviD, 720x304 (2,35:1), 23.976 fps, 1637 kbps, 0.312 bit/pixel
    Аудио 1: Русский AC3, 48000 Гц, 2ch, 192 kbps - MVO
    Аудио 2: Русский AC3, 48000 Гц, 6ch, 448 kbps - AVO

    MediaInfo

    Общее
    Полное имя : B:\Jackie_Ryan.2014.BDRip-ylnian.avi
    Формат : AVI
    Формат/Информация : Audio Video Interleave
    Размер файла : 1,46 Гбайт
    Продолжительность : 1 ч. 31 м.
    Общий поток : 2291 Кбит/сек
    Программа кодирования : VirtualDubMod 1.5.10.2 (build 2540/release)
    Библиотека кодирования : VirtualDubMod build 2540/release
    Видео
    Идентификатор : 0
    Формат : MPEG-4 Visual
    Профиль формата : Advanced Simple@L5
    Параметр BVOP формата : 1
    Параметр QPel формата : Нет
    Параметр GMC формата : Без точки перехода
    Параметр матрицы формата : Default (MPEG)
    Идентификатор кодека : XVID
    Идентификатор кодека/Подсказка : XviD
    Продолжительность : 1 ч. 31 м.
    Битрейт : 1637 Кбит/сек
    Ширина : 720 пикселей
    Высота : 304 пикселя
    Соотношение сторон : 2,35:1
    Частота кадров : 23,976 (24000/1001) кадра/сек
    Цветовое пространство : YUV
    Субдискретизация насыщенности : 4:2:0
    Битовая глубина : 8 бит
    Тип развёртки : Прогрессивная
    Метод сжатия : С потерями
    Бит/(Пиксели*Кадры) : 0.312
    Размер потока : 1,04 Гбайт (71%)
    Библиотека кодирования : XviD 67
    Аудио #1
    Идентификатор : 1
    Формат : AC-3
    Формат/Информация : Audio Coding 3
    Расширение режима : CM (complete main)
    Параметр Endianness формата : Big
    Идентификатор кодека : 2000
    Продолжительность : 1 ч. 31 м.
    Вид битрейта : Постоянный
    Битрейт : 192 Кбит/сек
    Каналы : 2 канала
    Расположение каналов : Front: L R
    Частота : 48,0 КГц
    Частота кадров : 31,250 кадров/сек (1536 spf)
    Метод сжатия : С потерями
    Размер потока : 125 Мбайт (8%)
    Выравнивание : Разделение по промежуткам
    Продолжительность промежутка : 42 мс. (1,00 видеокадр)
    Время предзагрузки промежутка : 500 мс.
    Заголовок : MVO
    Аудио #2
    Идентификатор : 2
    Формат : AC-3
    Формат/Информация : Audio Coding 3
    Расширение режима : CM (complete main)
    Параметр Endianness формата : Big
    Идентификатор кодека : 2000
    Продолжительность : 1 ч. 31 м.
    Вид битрейта : Постоянный
    Битрейт : 448 Кбит/сек
    Каналы : 6 каналов
    Расположение каналов : Front: L C R, Side: L R, LFE
    Частота : 48,0 КГц
    Частота кадров : 31,250 кадров/сек (1536 spf)
    Метод сжатия : С потерями
    Размер потока : 292 Мбайт (20%)
    Выравнивание : Разделение по промежуткам
    Продолжительность промежутка : 42 мс. (1,00 видеокадр)
    Время предзагрузки промежутка : 500 мс.
    Заголовок : AVO - Alexeev

    Скриншот c названием фильма

    Скриншоты

    Скачать .torrent

    Скачать торрент-файл бесплатно и на максимальной скорости!

    Как скачивать? · Что такое торрент? · Рейтинг и ограничения

    !ВНИМАНИЕ!
    Сайт не распространяет и не хранит электронные версии произведений, а занимается лишь лишь предоставлением доступа к создаваемому пользователями каталогу ссылок на торрент-файлы, которые содержат только списки хеш-сумм, убедительная просьба с жалобами обращаться напрямую к пользователю. Файлы для обмена на трекере предоставлены пользователями сайта, и администрация не несёт ответственности за их содержание. Просьба не заливать файлы, защищенные авторскими правами, а также файлы нелегального содержания!


    _________________
    [Профиль] [ЛС]
    Показать сообщения:    
    Ответить на тему

    Текущее время: Сегодня, в 12:19

    Часовой пояс: GMT + 2



    Вы не можете начинать темы
    Вы не можете отвечать на сообщения
    Вы не можете редактировать свои сообщения
    Вы не можете удалять свои сообщения
    Вы не можете голосовать в опросах
    Вы не можете прикреплять файлы к сообщениям
    Вы не можете скачивать файлы