BitTorrentTracker PerecTracker.org
BitTorrentTracker PerecTracker.org
    
Регистрация  ·  Вход
 
 · 
Забыли пароль?

  • Громче, чем бомбы / Louder Than Bombs (Йоаким Триер / Joachim Trier) [2015, Норвегия, Франция, Дания, Драма, WEB-DLRip] Dub (Line)

    Ответить на тему
     
    Автор Сообщение

    Light

    Создавать темы 01-Июн-2016 01:31

           

    [Цитировать]

    Громче, чем бомбы / Louder Than Bombs
    Страна: Норвегия, Франция, Дания
    Жанр: Драма
    Год выпуска: 2015
    Продолжительность: 01:48:42
    Перевод: Профессиональный (дублированный) Line
    Cубтитры: нет
    Оригинальная аудиодорожка: нет
    Режиссер: Йоаким Триер / Joachim Trier
    В ролях: Гэбриел Бирн, Изабель Юппер, Джесси Айзенберг, Девин Друид, Эми Райан, Руби Джеринс, Меган Кетч, Дэвид Стрэтэйрн, Рэйчел Броснахэн, Расселл Познер
    Описание: Одна семья, трое мужчин и три взгляда на любимую женщину. Стареющий плейбой и добродушный отец семейства, остепенившийся насмешливый старший сын и хмурый романтичный подросток хранят свои воспоминания о матери и жене, которая тихому пригороду Нью-Йорка предпочла военную фотографию. То забавные, то пронзительные истории о ней переплетаются с событиями сегодняшнего дня, где каждый из мужчин переживает новую любовь, которая все-таки громче, чем бомбы.
    Сэмпл: http://sendfile.su/1238629
    Качество видео: WEB-DLRip (рип с Руторга)
    Формат видео: AVI
    Видео: XviD; 720x384 (4:2:0); 24,000 fps ; 1720 kbps avg
    Аудио: АС-3 ; 2 Сh, 48.0 KHz, 192 кб/с

    MediaInfo

    Format : AVI
    Format/Info : Audio Video Interleave
    File size : 1.46 GiB
    Duration : 1h 48mn
    Overall bit rate : 1 922 Kbps
    Writing application : VirtualDubMod 1.5.10.2 (build 2540/release)
    Writing library : VirtualDubMod build 2540/release
    Video
    ID : 0
    Format : MPEG-4 Visual
    Format profile : Advanced Simple@L5
    Format settings, BVOP : 2
    Format settings, QPel : No
    Format settings, GMC : No warppoints
    Format settings, Matrix : Default (MPEG)
    Codec ID : XVID
    Codec ID/Hint : XviD
    Duration : 1h 48mn
    Bit rate : 1 720 Kbps
    Width : 720 pixels
    Height : 384 pixels
    Display aspect ratio : 1.85:1
    Frame rate : 24.000 fps
    Color space : YUV
    Chroma subsampling : 4:2:0
    Bit depth : 8 bits
    Scan type : Progressive
    Compression mode : Lossy
    Bits/(Pixel*Frame) : 0.259
    Stream size : 1.31 GiB (90%)
    Writing library : XviD 1.2.1 (UTC 2008-12-04)
    Audio
    ID : 1
    Format : AC-3
    Format/Info : Audio Coding 3
    Mode extension : CM (complete main)
    Format settings, Endianness : Big
    Codec ID : 2000
    Duration : 1h 48mn
    Bit rate mode : Constant
    Bit rate : 192 Kbps
    Channel(s) : 2 channels
    Channel positions : Front: L R
    Sampling rate : 48.0 KHz
    Frame rate : 31.250 fps (1536 spf)
    Compression mode : Lossy
    Stream size : 149 MiB (10%)
    Alignment : Split accross interleaves
    Interleave, duration : 42 ms (1.00 video frame)
    Interleave, preload duration : 500 ms

    Скриншот c названием фильма

    Скриншоты






    Скачать .torrent

    Скачать торрент-файл бесплатно и на максимальной скорости!

    Как скачивать? · Что такое торрент? · Рейтинг и ограничения

    !ВНИМАНИЕ!
    Сайт не распространяет и не хранит электронные версии произведений, а занимается лишь лишь предоставлением доступа к создаваемому пользователями каталогу ссылок на торрент-файлы, которые содержат только списки хеш-сумм, убедительная просьба с жалобами обращаться напрямую к пользователю. Файлы для обмена на трекере предоставлены пользователями сайта, и администрация не несёт ответственности за их содержание. Просьба не заливать файлы, защищенные авторскими правами, а также файлы нелегального содержания!


    _________________
    [Профиль] [ЛС]
    Показать сообщения:    
    Ответить на тему

    Текущее время: Сегодня, в 15:01

    Часовой пояс: GMT + 2



    Вы не можете начинать темы
    Вы не можете отвечать на сообщения
    Вы не можете редактировать свои сообщения
    Вы не можете удалять свои сообщения
    Вы не можете голосовать в опросах
    Вы не можете прикреплять файлы к сообщениям
    Вы не можете скачивать файлы