BitTorrentTracker PerecTracker.org
BitTorrentTracker PerecTracker.org
    
Регистрация  ·  Вход
 
 · 
Забыли пароль?

  • Экипаж (Николай Лебедев) [2016, Катастрофа, мелодрама, BDRip]

    Ответить на тему
     
    Автор Сообщение

    Flirldrerve

    Создавать темы 31-Май-2016 21:19

           

    [Цитировать]

    Экипаж
    Жанр: Катастрофа, мелодрама
    Год выпуска: 2016
    Продолжительность: 02:17:10
    Режиссёр: Николай Лебедев
    В ролях: Данила Козловский, Владимир Машков, Агне Грудите, Катерина Шпица, Сергей Газаров, Елена Яковлева, Сергей Шакуров, Вера Иванова, Татьяна Новик, Сергей Кемпо, Алёна Бабенко, Сергей Романович, и др.
    Описание: Молодой и талантливый лётчик Алексей Гущин из-за своего неуступчивого характера не смог удержаться ни в военной, ни в грузовой авиации. Начальство не желает видеть в своих рядах подчинённого, который готов оспаривать приказы, даже если те действительно абсурдны. Наконец, при помощи отца он устраивается на работу в пассажирскую авиакомпанию в экипаж строгого Леонида Зинченко, профессионала, чья дисциплина и неукоснительное следование правилам стали уже легендарными. Роль второго пилота не очень нравится своенравному Гущину, у которого на всё своё мнение, но, тем не менее, пилоты уживаются и начинают спокойно работать.
    Всё было нормально до случая со скандалом на борту, когда Алексей усмирил зарвавшегося VIP-пассажира. Тот оказывается одним из совладельцев компании, и лётчик попадает в опалу. Вместо увольнения, которого удалось избежать по просьбе Зинченко, экипаж отправляют далеко от престижных маршрутов. Их новая задача – возить пассажиров между архипелагами в Тихом океане, где ведутся большие горнопромышленные работы. В один из дней рутинные перелёты прерваны экстренным вызовом – на одном из островов началось сильнейшее извержение вулкана. Чтобы спасти людей от раскалённой лавы, у наших лётчиков есть всего один шанс. Теперь нужно забыть о былых разногласиях, собраться и выполнить всё от них зависящее на пределе своих возможностей.

    Качество видео: BDRip [Blu-Ray Remux (1080p) Аристократ Кинозал.ТВ]
    Формат видео: AVI
    Видео: XviD 73 MPEG-4, 720x304 (2.35:1) 24.000 fps, ~1069 kbps avg, 0.204 bit/pixel
    Аудио: AC-3 Dolby Digital, CBR 448 kbps 6 ch (Front: L C R, Side: L R, LFE) 48.0 KHz

    MediaInfo

    ОбщееПолное имя : V:\Экипаж_2016_BDRip_[perectracker.org].aviФормат : AVIФормат/Информация : Audio Video InterleaveРазмер файла : 1,46 ГбайтПродолжительность : 2 ч. 17 м.Общий поток : 1527 Кбит/секПрограмма кодирования : VirtualDubMod 1.5.10.3 (build 2550/release)Библиотека кодирования : VirtualDubMod build 2550/release
    ВидеоИдентификатор : 0Формат : MPEG-4 VisualПрофиль формата : Advanced Simple@L5Параметр BVOP формата : 2Параметр QPel формата : НетПараметр GMC формата : Без точки переходаПараметр матрицы формата : Default (MPEG)Идентификатор кодека : XVIDИдентификатор кодека/Подсказка : XviDПродолжительность : 2 ч. 17 м.Битрейт : 1069 Кбит/секШирина : 720 пикселейВысота : 304 пикселяСоотношение сторон : 2,35:1Частота кадров : 24,000 кадра/секЦветовое пространство : YUVСубдискретизация насыщенности : 4:2:0Битовая глубина : 8 битТип развёртки : ПрогрессивнаяМетод сжатия : С потерямиБит/(Пиксели*Кадры) : 0.204Размер потока : 1,02 Гбайт (70%)Библиотека кодирования : XviD 73
    АудиоИдентификатор : 1Формат : AC-3Формат/Информация : Audio Coding 3Расширение режима : CM (complete main)Параметр Endianness формата : BigИдентификатор кодека : 2000Продолжительность : 2 ч. 17 м.Вид битрейта : ПостоянныйБитрейт : 448 Кбит/секКаналы : 6 каналовРасположение каналов : Front: L C R, Side: L R, LFEЧастота : 48,0 КГцБитовая глубина : 16 битМетод сжатия : С потерямиРазмер потока : 440 Мбайт (29%)Выравнивание : Разделение по промежуткамПродолжительность промежутка : 42 мс. (1,00 видеокадр)Время предзагрузки промежутка : 500 мс.

    Скриншот c названием фильма

    Скриншоты

    Время раздачи - по возможности.
    Скачать .torrent

    Скачать торрент-файл бесплатно и на максимальной скорости!

    Как скачивать? · Что такое торрент? · Рейтинг и ограничения

    !ВНИМАНИЕ!
    Сайт не распространяет и не хранит электронные версии произведений, а занимается лишь лишь предоставлением доступа к создаваемому пользователями каталогу ссылок на торрент-файлы, которые содержат только списки хеш-сумм, убедительная просьба с жалобами обращаться напрямую к пользователю. Файлы для обмена на трекере предоставлены пользователями сайта, и администрация не несёт ответственности за их содержание. Просьба не заливать файлы, защищенные авторскими правами, а также файлы нелегального содержания!


    _________________
    [Профиль] [ЛС]
    Показать сообщения:    
    Ответить на тему

    Текущее время: Сегодня, в 16:29

    Часовой пояс: GMT + 2



    Вы не можете начинать темы
    Вы не можете отвечать на сообщения
    Вы не можете редактировать свои сообщения
    Вы не можете удалять свои сообщения
    Вы не можете голосовать в опросах
    Вы не можете прикреплять файлы к сообщениям
    Вы не можете скачивать файлы