BitTorrentTracker PerecTracker.org
BitTorrentTracker PerecTracker.org
    
Регистрация  ·  Вход
 
 · 
Забыли пароль?

  • Убей своих друзей / Kill Your Friends (Оуэн Харрис / Owen Harris) [2015, Великобритания, триллер, комедия, криминал, BDRip 720p] Dub (iTunes) + Sub Eng + Original Eng

    Ответить на тему
     
    Автор Сообщение

    Light

    Создавать темы 31-Май-2016 21:19

           

    [Цитировать]

    Убей своих друзей / Kill Your Friends
    Страна: Великобритания
    Студия: Altitude Films & AI Films
    Жанр: триллер, комедия, криминал
    Год выпуска: 2015
    Продолжительность: 1:43:29
    Перевод: Профессиональный (дублированный) iTunes
    Cубтитры: английские
    Оригинальная аудиодорожка: английский
    Режиссер: Оуэн Харрис / Owen Harris
    В ролях: Николас Холт, Крэйг Робертс, Джорджия Кинг, Том Райли, Эдвард Хогг, Джеймс Корден, Джим Пиддок, Джозеф Моул, Дэмиен Молони, Эд Скрейн
    Описание: Знакомьтесь, Стивен Стелфокс — менеджер по поиску талантов в звукозаписывающей студии. Наполненный жадностью и тщеславием, Стелфокс весело колесит по всему земному шару в поисках молодых талантов. Но как только хиты заканчиваются и индустрия начинает меняться, Стелфоксу ничего больше не остается, как сыграть по правилам жестокого бизнеса, чтобы добраться к вершинам и спасти свою карьеру…

    Тип релиза: BDRip 720p
    Контейнер: MKV
    Видео: H.264/AVC, 1280x536, [2.4:1], 4500 kbps, 24 fps
    Аудио: Русский дублированный (i-Tunes), AC3, 6 ch, 48KHz, 384 kbps
    Аудио 2: English Original, AC3, 6 ch, 48 KHz, 640 kbps
    Формат субтитров: softsub (SRT)

    MediaInfo

    x264 [info]: frame I:1327 Avg QP:15.97
    x264 [info]: frame P:29568 Avg QP:17.01
    x264 [info]: frame B:118124 Avg QP:17.72
    General
    Format : Matroska
    Format version : Version 2
    File size : 3.99 GiB
    Duration : 1h 43mn
    Overall bit rate : 5 524 Kbps
    Encoded date : UTC 2016-05-25 11:35:44
    Writing application : mkvmerge v8.5.2 ('Crosses') 32bit
    Writing library : libebml v1.3.3 + libmatroska v1.4.4
    Video
    ID : 1
    Format : AVC
    Format/Info : Advanced Video Codec
    Format profile : High@L4
    Format settings, CABAC : Yes
    Format settings, ReFrames : 12 frames
    Codec ID : V_MPEG4/ISO/AVC
    Duration : 1h 43mn
    Bit rate : 4 500 Kbps
    Width : 1 280 pixels
    Height : 536 pixels
    Display aspect ratio : 2.40:1
    Frame rate mode : Constant
    Frame rate : 24.000 fps
    Color space : YUV
    Chroma subsampling : 4:2:0
    Bit depth : 8 bits
    Scan type : Progressive
    Bits/(Pixel*Frame) : 0.273
    Stream size : 3.25 GiB (81%)
    Writing library : x264 core 148 r2638 7599210
    Encoding settings : cabac=1 / ref=12 / deblock=1:-2:-2 / analyse=0x3:0x133 / me=umh / subme=11 / psy=1 / psy_rd=1.05:0.00 / mixed_ref=1 / me_range=32 / chroma_me=1 / trellis=2 / 8x8dct=1 / cqm=0 / deadzone=21,11 / fast_pskip=0 / chroma_qp_offset=-2 / threads=6 / lookahead_threads=1 / sliced_threads=0 / nr=0 / decimate=0 / interlaced=0 / bluray_compat=0 / constrained_intra=0 / bframes=12 / b_pyramid=2 / b_adapt=2 / b_bias=0 / direct=3 / weightb=1 / open_gop=0 / weightp=2 / keyint=240 / keyint_min=23 / scenecut=40 / intra_refresh=0 / rc=2pass / mbtree=0 / bitrate=4500 / ratetol=1.0 / qcomp=0.70 / qpmin=0 / qpmax=69 / qpstep=4 / cplxblur=20.0 / qblur=0.5 / ip_ratio=1.20 / pb_ratio=1.20 / aq=3:0.85
    Default : Yes
    Forced : No
    Audio #1
    ID : 2
    Format : AC-3
    Format/Info : Audio Coding 3
    Mode extension : CM (complete main)
    Format settings, Endianness : Big
    Codec ID : A_AC3
    Duration : 1h 43mn
    Bit rate mode : Constant
    Bit rate : 384 Kbps
    Channel(s) : 6 channels
    Channel positions : Front: L C R, Side: L R, LFE
    Sampling rate : 48.0 KHz
    Frame rate : 31.250 fps (1536 spf)
    Compression mode : Lossy
    Stream size : 284 MiB (7%)
    Title : Русский (iTunes)
    Language : Russian
    Default : Yes
    Forced : No
    Audio #2
    ID : 3
    Format : AC-3
    Format/Info : Audio Coding 3
    Mode extension : CM (complete main)
    Format settings, Endianness : Big
    Codec ID : A_AC3
    Duration : 1h 43mn
    Bit rate mode : Constant
    Bit rate : 640 Kbps
    Channel(s) : 6 channels
    Channel positions : Front: L C R, Side: L R, LFE
    Sampling rate : 48.0 KHz
    Frame rate : 31.250 fps (1536 spf)
    Compression mode : Lossy
    Stream size : 474 MiB (12%)
    Title : English Original
    Language : English
    Default : No
    Forced : No
    Text
    ID : 4
    Format : UTF-8
    Codec ID : S_TEXT/UTF8
    Codec ID/Info : UTF-8 Plain Text
    Duration : 1h 37mn
    Bit rate : 79 bps
    Count of elements : 1509
    Stream size : 56.7 KiB (0%)
    Language : English
    Default : No
    Forced : No
    Menu
    00:00:00.000 : en:Chapter 1
    00:10:03.666 : en:Chapter 2
    00:19:33.666 : en:Chapter 3
    00:26:08.375 : en:Chapter 4
    00:34:31.125 : en:Chapter 5
    00:40:45.250 : en:Chapter 6
    00:50:45.458 : en:Chapter 7
    00:59:19.916 : en:Chapter 8
    01:07:56.708 : en:Chapter 9
    01:18:05.458 : en:Chapter 10
    01:27:24.791 : en:Chapter 11
    01:36:37.583 : en:Chapter 12

    Скриншоты

    Сравнение с оригиналом (оригинал слева)



    Скачать .torrent

    Скачать торрент-файл бесплатно и на максимальной скорости!

    Как скачивать? · Что такое торрент? · Рейтинг и ограничения

    !ВНИМАНИЕ!
    Сайт не распространяет и не хранит электронные версии произведений, а занимается лишь лишь предоставлением доступа к создаваемому пользователями каталогу ссылок на торрент-файлы, которые содержат только списки хеш-сумм, убедительная просьба с жалобами обращаться напрямую к пользователю. Файлы для обмена на трекере предоставлены пользователями сайта, и администрация не несёт ответственности за их содержание. Просьба не заливать файлы, защищенные авторскими правами, а также файлы нелегального содержания!


    _________________
    [Профиль] [ЛС]
    Показать сообщения:    
    Ответить на тему

    Текущее время: Сегодня, в 20:19

    Часовой пояс: GMT + 2



    Вы не можете начинать темы
    Вы не можете отвечать на сообщения
    Вы не можете редактировать свои сообщения
    Вы не можете удалять свои сообщения
    Вы не можете голосовать в опросах
    Вы не можете прикреплять файлы к сообщениям
    Вы не можете скачивать файлы