BitTorrentTracker PerecTracker.org
BitTorrentTracker PerecTracker.org
    
Регистрация  ·  Вход
 
 · 
Забыли пароль?

  • Проклятие Спящей красавицы / The Curse of Sleeping Beauty (Тео Пирри / Pearry Reginald Teo) [2016, США, фэнтези, триллер, детектив, WEB-DLRip] VO (Xixidok)

    Ответить на тему
     
    Автор Сообщение

    rechyn

    Создавать темы 31-Май-2016 21:19

           

    [Цитировать]

    Проклятие Спящей красавицы / The Curse of Sleeping Beauty
    Страна: США
    Жанр: фэнтези, триллер, детектив
    Год выпуска: 2016
    Продолжительность: 01:26:19
    Перевод: Одноголосый закадровый Xixidok
    Cубтитры: нет
    Оригинальная аудиодорожка: нет
    Режиссер: Тео Пирри / Pearry Reginald Teo
    В ролях: Индиа Айсли, Итан Пек, Натали Холл, Брюс Дэвисон, Джеймс Лим, Скотт Алан Смит, Зак Уорд, Мим Дрю, Даллас Харт

    Описание:Томас Кайзер наследует родовое поместье, принадлежащее его семье многие поколения. Но он и не подозревает, что вместе с домом унаследовал и древнее проклятие, что лежит на нём со времён крестовых походов. Томас вынужден примерить на себя роль «хранителя» — того, кто не допустит, чтобы силы зла высвободились из поместья. Разгадать тайну дома ему помогут местный риелтор и священник, а также разбудить прекрасную Брайер Роуз, запертую в ужасном месте, которое Томас видел в своих снах.Качество видео: WEB-DLRip
    Формат видео: AVI
    Видео: Xvid 720x304 (40:17) 23.976fps [Video]
    Аудио: MPEG Audio Layer 3 44100Hz stereo 192kbps [Audio]

    MediaInfo

    General
    Complete name : E:\Zona Downloads\Проклятие Спящей Красавицы - The Curse of Sleeping Beauty.avi
    Format : AVI
    Format/Info : Audio Video Interleave
    Format profile : OpenDML
    File size : 1.43 GiB
    Duration : 1h 26mn
    Overall bit rate : 2 376 Kbps
    Writing application : XviD4PSP 6.0 / 54.29.105
    Video
    ID : 0
    Format : xvid
    Codec ID : xvid
    Duration : 1h 26mn
    Bit rate : 2 170 Kbps
    Width : 720 pixels
    Height : 304 pixels
    Display aspect ratio : 2.35:1
    Frame rate : 23.976 fps
    Bits/(Pixel*Frame) : 0.414
    Stream size : 1.31 GiB (91%)
    Audio
    ID : 1
    Format : MPEG Audio
    Format version : Version 1
    Format profile : Layer 3
    Codec ID : 55
    Codec ID/Hint : MP3
    Duration : 1h 26mn
    Bit rate mode : Constant
    Bit rate : 192 Kbps
    Channel(s) : 2 channels
    Sampling rate : 44.1 KHz
    Compression mode : Lossy
    Stream size : 119 MiB (8%)
    Alignment : Aligned on interleaves
    Interleave, duration : 26 ms (0.63 video frame)

    Скриншот c названием фильма

    Скриншоты

    Скачать .torrent

    Скачать торрент-файл бесплатно и на максимальной скорости!

    Как скачивать? · Что такое торрент? · Рейтинг и ограничения

    !ВНИМАНИЕ!
    Сайт не распространяет и не хранит электронные версии произведений, а занимается лишь лишь предоставлением доступа к создаваемому пользователями каталогу ссылок на торрент-файлы, которые содержат только списки хеш-сумм, убедительная просьба с жалобами обращаться напрямую к пользователю. Файлы для обмена на трекере предоставлены пользователями сайта, и администрация не несёт ответственности за их содержание. Просьба не заливать файлы, защищенные авторскими правами, а также файлы нелегального содержания!


    _________________
    [Профиль] [ЛС]
    Показать сообщения:    
    Ответить на тему

    Текущее время: Сегодня, в 18:34

    Часовой пояс: GMT + 2



    Вы не можете начинать темы
    Вы не можете отвечать на сообщения
    Вы не можете редактировать свои сообщения
    Вы не можете удалять свои сообщения
    Вы не можете голосовать в опросах
    Вы не можете прикреплять файлы к сообщениям
    Вы не можете скачивать файлы