BitTorrentTracker PerecTracker.org
BitTorrentTracker PerecTracker.org
    
Регистрация  ·  Вход
 
 · 
Забыли пароль?

  • Живая сталь / Real Steel (Шон Леви / Shawn Levy) [2011, США, Индия, фантастика, боевик, семейный, TVRip-AVC] [Fullscreen] Dub

    Ответить на тему
     
    Автор Сообщение

    Light

    Создавать темы 31-Май-2016 21:19

           

    [Цитировать]

    Живая сталь / Real Steel / Fullscreen
    Страна: США, Индия
    Жанр: фантастика, боевик, семейный
    Год выпуска: 2011
    Продолжительность: 01:52:42
    Перевод: Профессиональный (дублированный)
    Cубтитры: нет
    Режиссер: Шон Леви / Shawn Levy
    В ролях: Хью Джекман, Дакота Гойо, Эванджелин Лилли, Энтони Маки, Кевин Дюран, Хоуп Дэвис, Джеймс Ребхорн, Карл Юн, Ольга Фонда, Джон Гэйтинс.
    Описание: События фильма происходят в будущем, где бокс запрещен за негуманностью и заменен боями 2000-фунтовых роботов, управляемых людьми. Бывший боксер, а теперь промоутер, переметнувшийся в Робобокс, решает, что наконец нашел своего чемпиона, когда ему попадается выбракованный, но очень способный робот. Главный герой — Чарли Кентон (Хью Джекман), живущий у дочери своего умершего тренера Бейли Таллет (Эванджелин Лилли), ведомый любовью к деньгам, принимает участие в боях роботов, терпя одно поражение за другим и всё глубже увязая в долгах. Попутно он узнает, что умерла его бывшая жена, оставив их сына Макса Кентона (Дакота Гойо) сиротой. Вероломно продав право на опеку над мальчиком более состоятельным родственникам покойной супруги, он берет Макса на время под свою опеку, «чтобы наладить отношения отца и сына», а также для получения лишних денег.
    Доп. информация: Fullscreen с канала СТС. Имеет большее наполнение кадра снизу и сверху, по сравнению с Blu-Ray и DVD: http://screenshotcomparison.com/comparison/174298/picture:0. Всех, кто скачал, прошу встать на раздачу. Т.к. я единственный.
    Сэмпл: https://yadi.sk/i/bh5gCTafs6QKL
    Качество видео: TVRip-AVC
    Формат видео: MKV
    Видео: MPEG4; AVC; 640x480 (4:3); 25.000 fps; 1500 kbps (1.000 bit/pixel)
    Аудио: MPEG-1 Audio layer 3; 48,0 KHz, 2 ch, 96,0 Kbps, CBR

    MediaInfo

    Общее
    Уникальный идентификатор : 192117993588508865901979574687149654759 (0x908894654DB9683B99D94A82E41902E7)
    Полное имя : D:\Живая сталь (2011)(Fullscreen).mkv
    Формат : Matroska
    Версия формата : Version 4 / Version 2
    Размер файла : 1,31 Гбайт
    Продолжительность : 1 ч. 55 м.
    Общий поток : 1623 Кбит/сек
    Дата кодирования : UTC 2015-12-24 13:15:40
    Программа кодирования : mkvmerge v8.2.0 ('World of Adventure') 32bit
    Библиотека кодирования : libebml v1.3.1 + libmatroska v1.4.2
    Видео
    Идентификатор : 1
    Формат : AVC
    Формат/Информация : Advanced Video Codec
    Профиль формата : High@L4.1
    Параметр CABAC формата : Да
    Параметр ReFrames формата : 5 кадров
    Идентификатор кодека : V_MPEG4/ISO/AVC
    Продолжительность : 1 ч. 55 м.
    Битрейт : 1500 Кбит/сек
    Ширина : 640 пикселей
    Высота : 480 пикселей
    Соотношение сторон : 4:3
    Соотношение сторон в оригинале : 4:3
    Режим частоты кадров : Постоянный
    Частота кадров : 25,000 кадров/сек
    Цветовое пространство : YUV
    Субдискретизация насыщенности : 4:2:0
    Битовая глубина : 8 бит
    Тип развёртки : Прогрессивная
    Бит/(Пиксели*Кадры) : 0.195
    Размер потока : 1,23 Гбайт (94%)
    Библиотека кодирования : x264 core 80 r1378+57 6f6b50a
    Настройки программы : cabac=1 / ref=5 / deblock=1:0:0 / analyse=0x3:0x113 / me=hex / subme=7 / psy=1 / psy_rd=1.0:0.0 / mixed_ref=1 / me_range=16 / chroma_me=1 / trellis=1 / 8x8dct=1 / cqm=0 / deadzone=21,11 / fast_pskip=1 / chroma_qp_offset=-2 / threads=3 / sliced_threads=0 / nr=0 / decimate=1 / mbaff=0 / constrained_intra=0 / bframes=5 / b_pyramid=0 / b_adapt=1 / b_bias=0 / direct=1 / wpredb=1 / wpredp=2 / keyint=250 / keyint_min=25 / scenecut=40 / rc_lookahead=40 / rc=abr / mbtree=1 / bitrate=1500 / ratetol=1.0 / qcomp=0.60 / qpmin=10 / qpmax=51 / qpstep=4 / ip_ratio=1.40 / aq=1:1.00
    Default : Да
    Forced : Нет
    Аудио
    Идентификатор : 2
    Формат : MPEG Audio
    Версия формата : Version 1
    Профиль формата : Layer 3
    Режим : Joint stereo
    Расширение режима : MS Stereo
    Идентификатор кодека : A_MPEG/L3
    Идентификатор кодека/Подсказка : MP3
    Продолжительность : 1 ч. 55 м.
    Вид битрейта : Постоянный
    Битрейт : 96,0 Кбит/сек
    Каналы : 2 канала
    Частота : 48,0 КГц
    Частота кадров : 41,667 кадра/сек (1152 spf)
    Метод сжатия : С потерями
    Задержка видео : 520 мс.
    Размер потока : 79,4 Мбайт (6%)
    Default : Да
    Forced : Нет

    Скриншот c названием фильма

    Скриншоты

    Скачать .torrent

    Скачать торрент-файл бесплатно и на максимальной скорости!

    Как скачивать? · Что такое торрент? · Рейтинг и ограничения

    !ВНИМАНИЕ!
    Сайт не распространяет и не хранит электронные версии произведений, а занимается лишь лишь предоставлением доступа к создаваемому пользователями каталогу ссылок на торрент-файлы, которые содержат только списки хеш-сумм, убедительная просьба с жалобами обращаться напрямую к пользователю. Файлы для обмена на трекере предоставлены пользователями сайта, и администрация не несёт ответственности за их содержание. Просьба не заливать файлы, защищенные авторскими правами, а также файлы нелегального содержания!


    _________________
    [Профиль] [ЛС]
    Показать сообщения:    
    Ответить на тему

    Текущее время: Сегодня, в 10:20

    Часовой пояс: GMT + 2



    Вы не можете начинать темы
    Вы не можете отвечать на сообщения
    Вы не можете редактировать свои сообщения
    Вы не можете удалять свои сообщения
    Вы не можете голосовать в опросах
    Вы не можете прикреплять файлы к сообщениям
    Вы не можете скачивать файлы