BitTorrentTracker PerecTracker.org
BitTorrentTracker PerecTracker.org
    
Регистрация  ·  Вход
 
 · 
Забыли пароль?

  • Елена / Kätilö (Антти Йокинен / Antti Jokinen) [2015, Финляндия, Литва, Военный, драма, мелодрама, HDRip] DVO (студия "Levelin") + Sub Eng

    Ответить на тему
     
    Автор Сообщение

    Light

    Создавать темы 31-Май-2016 21:19

           

    [Цитировать]

    Елена / Kätilö-Страна: Финляндия, Литва
    Жанр: Военный, драма, мелодрама
    Год выпуска: 2015
    Продолжительность: 01:58:31-Перевод: Любительский (двухголосый закадровый) студия "Levelin"
    Cубтитры: английские
    Режиссер: Антти Йокинен / Antti Jokinen-В ролях: Криста Косонен, Лаури Тилканен, Пиркка-Пекка Петелиус, Томми Корпела, Леа Клемола, Сеппо Пяакконен, Элина Книхтиля, Тиина Векстрем-Описание: Финляндия, 1944 год. Чтобы избежать полного разгрома своей страны, правительство Финляндии заключило мирный договор с союзниками и по его условиям было вынуждено открыть боевые действия против немецких войск, находящихся в провинции Лапландия. В это смутное и жестокое время встречаются акушерка из маленького городка Хелена и немецкий офицер Йоханнес. Им приходится бороться не только за свою любовь, но и за свою жизнь
    Сэмпл: http://multi-up.com/1103834 IMDb
    Качество видео: HDRip
    Формат видео: AVI
    Видео: xvid, 720x304 (2.35:1), 23.976 fps, 1 550 Kbps (0.295 bit/pixel)
    Аудио: AC-3, 48.0 KHz, 2 ch, 192 Kbps, CBR
    Формат субтитров: softsub (SRT)

    MediaInfo

    Общее
    Полное имя : C:\Раздача\Фильмы\Kätilö (2015) HDRip\The.Midwife.2015.НDRip.avi
    Формат : AVI
    Формат/Информация : Audio Video Interleave
    Профиль формата : OpenDML
    Размер файла : 1,45 Гбайт
    Продолжительность : 1 ч. 58 м.
    Общий поток : 1754 Кбит/сек
    Программа кодирования : XviD4PSP 6.0 / 54.29.105
    Видео
    Идентификатор : 0
    Формат : xvid
    Идентификатор кодека : xvid
    Продолжительность : 1 ч. 58 м.
    Битрейт : 1550 Кбит/сек
    Ширина : 720 пикселей
    Высота : 304 пикселя
    Соотношение сторон : 2,35:1
    Частота кадров : 23,976 кадра/сек
    Тип развёртки : Прогрессивная
    Бит/(Пиксели*Кадры) : 0.295
    Размер потока : 1,28 Гбайт (88%)
    Аудио
    Идентификатор : 1
    Формат : AC-3
    Формат/Информация : Audio Coding 3
    Расширение режима : CM (complete main)
    Параметр Endianness формата : Big
    Идентификатор кодека : 2000
    Продолжительность : 1 ч. 58 м.
    Вид битрейта : Постоянный
    Битрейт : 192 Кбит/сек
    Каналы : 2 канала
    Расположение каналов : Front: L R
    Частота : 48,0 КГц
    Частота кадров : 31,250 кадров/сек (1536 spf)
    Битовая глубина : 16 бит
    Метод сжатия : С потерями
    Размер потока : 163 Мбайт (11%)
    Выравнивание : Соединение по промежуткам
    Продолжительность промежутка : 32 мс. (0,77 видеокадр)

    Скриншот c названием фильма

    Скриншоты

    Скачать .torrent

    Скачать торрент-файл бесплатно и на максимальной скорости!

    Как скачивать? · Что такое торрент? · Рейтинг и ограничения

    !ВНИМАНИЕ!
    Сайт не распространяет и не хранит электронные версии произведений, а занимается лишь лишь предоставлением доступа к создаваемому пользователями каталогу ссылок на торрент-файлы, которые содержат только списки хеш-сумм, убедительная просьба с жалобами обращаться напрямую к пользователю. Файлы для обмена на трекере предоставлены пользователями сайта, и администрация не несёт ответственности за их содержание. Просьба не заливать файлы, защищенные авторскими правами, а также файлы нелегального содержания!


    _________________
    [Профиль] [ЛС]
    Показать сообщения:    
    Ответить на тему

    Текущее время: Сегодня, в 11:56

    Часовой пояс: GMT + 2



    Вы не можете начинать темы
    Вы не можете отвечать на сообщения
    Вы не можете редактировать свои сообщения
    Вы не можете удалять свои сообщения
    Вы не можете голосовать в опросах
    Вы не можете прикреплять файлы к сообщениям
    Вы не можете скачивать файлы