BitTorrentTracker PerecTracker.org
BitTorrentTracker PerecTracker.org
    
Регистрация  ·  Вход
 
 · 
Забыли пароль?

  • Гордость / Theeb (Наджи Абу Новар / Naji Abu Nowar) [2014, ОАЭ, Катар, Иордания, Великобритания, Триллер, Приключения, Драма, HDRip] VO (Семен Ващенко)

    Ответить на тему
     
    Автор Сообщение

    Light

    Создавать темы 31-Май-2016 04:31

           

    [Цитировать]

    Гордость / Theeb
    Страна: ОАЭ, Катар, Иордания, Великобритания
    Жанр: Триллер, Приключения, Драма
    Год выпуска: 2014
    Продолжительность: 01:40:49
    Перевод: Одноголосый закадровый (Семен Ващенко)
    Cубтитры: Русские / Английские (внешние)
    Оригинальная аудиодорожка: Арабский
    Режиссер: Наджи Абу Новар / Naji Abu Nowar
    В ролях: Jacir Eid Al-Hwietat, Hussein Salameh Al-Sweilhiyeen, Hassan Mutlag Al-Maraiyeh, Джек Фокс
    Описание: В Османской провинции Хиджаз, во время Первой мировой войны маленький бедуинский мальчик переживает слишком поспешное взросление, когда отправляется в рискованное путешествие по пустыне, чтобы провести британского офицера к его засекреченному пункту назначения.
    Доп. информация: Рейтинг - IMDb 7.3
    Сэмпл: http://multi-up.com/1103700
    Качество видео: HDRip
    Формат видео: AVI
    Видео: XviD, 720x304, (2,40:1), 23,976 fps, 1536 Кбит/с, 0.29 bit/pixel
    Аудио: Русский (AC-3, 2 ch (Front: L R), 48,0 KHz, 192 Kbps)
    Аудио 2: Арабский (AC-3, 6 ch (Front: L C R, Side: L R, LFE), 48,0 KHz, 320 Kbps)

    MediaInfo

    Общее
    Полное имя : F:\Видеофильмы\В и д е о\Гордость (драма приключения 2014г)\Гордость (драма приключения 2014г).avi
    Формат : AVI
    Формат/Информация : Audio Video Interleave
    Профиль формата : OpenDML
    Размер файла : 1,46 Гбайт
    Продолжительность : 1 ч. 40 м.
    Общий поток : 2067 Кбит/сек
    Программа кодирования : XviD4PSP 6.0 / 54.29.105
    Видео
    Идентификатор : 0
    Формат : xvid
    Идентификатор кодека : xvid
    Продолжительность : 1 ч. 40 м.
    Битрейт : 1536 Кбит/сек
    Ширина : 720 пикселей
    Высота : 304 пикселя
    Соотношение сторон : 2,40:1
    Частота кадров : 23,976 кадра/сек
    Тип развёртки : Прогрессивная
    Бит/(Пиксели*Кадры) : 0.293
    Размер потока : 1,08 Гбайт (74%)
    Аудио #1
    Идентификатор : 1
    Формат : AC-3
    Формат/Информация : Audio Coding 3
    Расширение режима : CM (complete main)
    Параметр Endianness формата : Big
    Идентификатор кодека : 2000
    Продолжительность : 1 ч. 40 м.
    Вид битрейта : Постоянный
    Битрейт : 192 Кбит/сек
    Каналы : 2 канала
    Расположение каналов : Front: L R
    Частота : 48,0 КГц
    Частота кадров : 31,250 кадров/сек (1536 spf)
    Битовая глубина : 16 бит
    Метод сжатия : С потерями
    Размер потока : 138 Мбайт (9%)
    Выравнивание : Соединение по промежуткам
    Продолжительность промежутка : 32 мс. (0,77 видеокадр)
    Аудио #2
    Идентификатор : 2
    Формат : AC-3
    Формат/Информация : Audio Coding 3
    Расширение режима : CM (complete main)
    Параметр Endianness формата : Big
    Идентификатор кодека : 2000
    Продолжительность : 1 ч. 40 м.
    Вид битрейта : Постоянный
    Битрейт : 320 Кбит/сек
    Каналы : 6 каналов
    Расположение каналов : Front: L C R, Side: L R, LFE
    Частота : 48,0 КГц
    Частота кадров : 31,250 кадров/сек (1536 spf)
    Битовая глубина : 16 бит
    Метод сжатия : С потерями
    Размер потока : 231 Мбайт (15%)
    Выравнивание : Соединение по промежуткам
    Продолжительность промежутка : 32 мс. (0,77 видеокадр)

    Скриншот c названием фильма

    Скриншоты

    Скачать .torrent

    Скачать торрент-файл бесплатно и на максимальной скорости!

    Как скачивать? · Что такое торрент? · Рейтинг и ограничения

    !ВНИМАНИЕ!
    Сайт не распространяет и не хранит электронные версии произведений, а занимается лишь лишь предоставлением доступа к создаваемому пользователями каталогу ссылок на торрент-файлы, которые содержат только списки хеш-сумм, убедительная просьба с жалобами обращаться напрямую к пользователю. Файлы для обмена на трекере предоставлены пользователями сайта, и администрация не несёт ответственности за их содержание. Просьба не заливать файлы, защищенные авторскими правами, а также файлы нелегального содержания!


    _________________
    [Профиль] [ЛС]
    Показать сообщения:    
    Ответить на тему

    Текущее время: Сегодня, в 08:29

    Часовой пояс: GMT + 2



    Вы не можете начинать темы
    Вы не можете отвечать на сообщения
    Вы не можете редактировать свои сообщения
    Вы не можете удалять свои сообщения
    Вы не можете голосовать в опросах
    Вы не можете прикреплять файлы к сообщениям
    Вы не можете скачивать файлы