BitTorrentTracker PerecTracker.org
BitTorrentTracker PerecTracker.org
    
Регистрация  ·  Вход
 
 · 
Забыли пароль?

  • Умереть заново / Dead Again (Кеннет Брэна / Kenneth Branagh) [1991, США, фэнтези, триллер, детектив, WEB-DL 720p] MVO (Первый Канал) + 2x DVO (Paramount Channel, Премьер Видео Фильм) + AVO (Михалёв) + Original Eng + Sub Eng

    Ответить на тему
     
    Автор Сообщение

    Light

    Создавать темы 30-Май-2016 22:41

           

    [Цитировать]

    Умереть заново / Dead Again-Год выпуска: 1991
    Страна: США
    Студия: Paramount Pictures
    Жанр: фэнтези, триллер, детектив
    Продолжительность: 01:47:42
    Перевод:
    • Профессиональный (многоголосый закадровый) студия «Эй Би Видео» по заказу Первого Канала
    • Профессиональный (двухголосый закадровый) Paramount Channel
    • Профессиональный (двухголосый закадровый) Премьер Видео Фильм |VHS|
    • Авторский (одноголосый закадровый) Алексей Михалёв
    Cубтитры: английские
    Оригинальная аудиодорожка: английский
    -Режиссер: Кеннет Брэна / Kenneth Branagh-В ролях: Кеннет Брэна, Энди Гарсиа, Дерек Джекоби, Уэйн Найт, Ханна Шигулла, Кэмпбелл Скотт, Эмма Томпсон, Джо Андерсон, Кристин Эберсоул, Луис Холл, Ричард Истон, Патрик Монтес и другие.-Роли озвучивали:
    • Первый Канал: Денис Беспалый, Виктор Бохон, Олег Куценко, Виктор Петров, Ольга Гаспарова.
    • Paramount Channel: Александр Коврижных, Дарья Фролова.
    • Премьер Видео Фильм: Александр Рахленко, Ирина Маликова.
    -Описание: Майк Чёрч — частный детектив из Лос-Анджелеса, специализирующийся на розыске пропавших людей. Он занимается делом молодой девушки, которую он зовёт Грейс. У девушки амнезия и она ничего не помнит из своего прошлого. Её постоянно мучают кошмары, в которых пианистку конца 1940-х Маргарет Штраусс ножницами убивает её муж Роман Штраусс. В ходе расследования Чёрч обращается за помощью к Франклину Мэдсону, торговцу антиквариатом. С помощью гипноза они надеются докопаться до истины.-РЕЛИЗ ОТ: V.SERIJ2013-

    Спасибо

    • Kabukiman - за аудиодорожки Первый Канал и с авторским переводом Алексея Михалёва
    • vedigo - за запись звука с телеканала Paramount Channel
    • Fikaloid - за оцифровку VHS-издания Премьер Видео Фильм
    • v.serij2013 (т.е., мне) - за обработку и сведение.
    -Качество: WEB-DL 720p |FGT|
    Формат: MKV
    Видео кодек: H.264
    Аудио кодек: AC3
    Видео: H.264, 1280x720 (16:9), 23.976 fps, ~3943 kbps, 0.178 bit/pixel
    Аудио:
    • русская |Первый Канал|: AC3, 48 kHz, 2 ch, 192 kbps
      русская |Paramount Channel|: AC3, 48 kHz, 2 ch, 192 kbps
      русская |Премьер Видео Фильм|: AC3, 48 kHz, 2 ch, 384 kbps
      русская |Алексей Михалёв|: AC3, 48 kHz, 2 ch, 192 kbps
    • английская |Оригинал|: AC3, 48 kHz, 6 ch, 384 kbps
      английская |Комментарий №1|: AC3, 48 kHz, 2 ch, 224 kbps
      английская |Комментарий №2|: AC3, 48 kHz, 2 ch, 224 kbps
    -Сэмпл \ Кинопоиск-

    Скриншоты

    Media Info

    General
    Unique ID                      : 229504584673469446000790208277893930727 (0xACA8F9A6AFA8A9D0AF61F3CFAE30DEE7)
    Complete name                  : E:\Video\HD\Movies (HD)\Dead Again (1991) (WEB-DL 720p).mkv
    Format                         : Matroska
    Format version                 : Version 4 / Version 2
    File size                      : 4.40 GiB
    Duration                       : 1h 47mn
    Overall bit rate               : 5 852 Kbps
    Encoded date                   : UTC 2016-05-30 11:22:07
    Writing application            : mkvmerge v8.8.0 ('Wind at my back') 32bit
    Writing library                : libebml v1.3.3 + libmatroska v1.4.4
    DURATION                       : 01:40:33.030000000
    NUMBER_OF_FRAMES               : 1113
    NUMBER_OF_BYTES                : 43477
    _STATISTICS_WRITING_APP        : mkvmerge v8.8.0 ('Wind at my back') 32bit
    _STATISTICS_WRITING_DATE_UTC   : 2016-05-30 11:22:07
    _STATISTICS_TAGS               : BPS DURATION NUMBER_OF_FRAMES NUMBER_OF_BYTES
    Video
    ID                             : 1
    Format                         : AVC
    Format/Info                    : Advanced Video Codec
    Format profile                 : High@L3.1
    Format settings, CABAC         : No
    Format settings, ReFrames      : 2 frames
    Codec ID                       : V_MPEG4/ISO/AVC
    Duration                       : 1h 47mn
    Bit rate                       : 3 943 Kbps
    Width                          : 1 280 pixels
    Height                         : 720 pixels
    Display aspect ratio           : 16:9
    Frame rate mode                : Constant
    Frame rate                     : 23.976 fps
    Color space                    : YUV
    Chroma subsampling             : 4:2:0
    Bit depth                      : 8 bits
    Scan type                      : Progressive
    Bits/(Pixel*Frame)             : 0.178
    Stream size                    : 2.97 GiB (67%)
    Language                       : English
    Default                        : Yes
    Forced                         : No
    Color primaries                : BT.709
    Transfer characteristics       : BT.709
    Matrix coefficients            : BT.709
    Color range                    : Limited
    Audio #1
    ID                             : 2
    Format                         : AC-3
    Format/Info                    : Audio Coding 3
    Mode extension                 : CM (complete main)
    Format settings, Endianness    : Big
    Codec ID                       : A_AC3
    Duration                       : 1h 47mn
    Bit rate mode                  : Constant
    Bit rate                       : 192 Kbps
    Channel(s)                     : 2 channels
    Channel positions              : Front: L R
    Sampling rate                  : 48.0 KHz
    Bit depth                      : 16 bits
    Compression mode               : Lossy
    Stream size                    : 148 MiB (3%)
    Title                          : MVO (Первый Канал)
    Language                       : Russian
    Default                        : Yes
    Forced                         : No
    Audio #2
    ID                             : 3
    Format                         : AC-3
    Format/Info                    : Audio Coding 3
    Mode extension                 : CM (complete main)
    Format settings, Endianness    : Big
    Codec ID                       : A_AC3
    Duration                       : 1h 47mn
    Bit rate mode                  : Constant
    Bit rate                       : 192 Kbps
    Channel(s)                     : 2 channels
    Channel positions              : Front: L R
    Sampling rate                  : 48.0 KHz
    Bit depth                      : 16 bits
    Compression mode               : Lossy
    Stream size                    : 148 MiB (3%)
    Title                          : DVO (Paramount Channel)
    Language                       : Russian
    Default                        : No
    Forced                         : No
    Audio #3
    ID                             : 4
    Format                         : AC-3
    Format/Info                    : Audio Coding 3
    Mode extension                 : CM (complete main)
    Format settings, Endianness    : Big
    Codec ID                       : A_AC3
    Duration                       : 1h 47mn
    Bit rate mode                  : Constant
    Bit rate                       : 384 Kbps
    Channel(s)                     : 2 channels
    Channel positions              : Front: L R
    Sampling rate                  : 48.0 KHz
    Bit depth                      : 16 bits
    Compression mode               : Lossy
    Stream size                    : 296 MiB (7%)
    Title                          : DVO (Премьер Видео Фильм)
    Language                       : Russian
    Default                        : No
    Forced                         : No
    Audio #4
    ID                             : 5
    Format                         : AC-3
    Format/Info                    : Audio Coding 3
    Mode extension                 : CM (complete main)
    Format settings, Endianness    : Big
    Codec ID                       : A_AC3
    Duration                       : 1h 47mn
    Bit rate mode                  : Constant
    Bit rate                       : 192 Kbps
    Channel(s)                     : 2 channels
    Channel positions              : Front: L R
    Sampling rate                  : 48.0 KHz
    Bit depth                      : 16 bits
    Compression mode               : Lossy
    Stream size                    : 148 MiB (3%)
    Title                          : AVO (Алексей Михалёв)
    Language                       : Russian
    Default                        : No
    Forced                         : No
    Audio #5
    ID                             : 6
    Format                         : AC-3
    Format/Info                    : Audio Coding 3
    Mode extension                 : CM (complete main)
    Format settings, Endianness    : Big
    Codec ID                       : A_AC3
    Duration                       : 1h 47mn
    Bit rate mode                  : Constant
    Bit rate                       : 384 Kbps
    Channel(s)                     : 6 channels
    Channel positions              : Front: L C R, Side: L R, LFE
    Sampling rate                  : 48.0 KHz
    Bit depth                      : 16 bits
    Compression mode               : Lossy
    Stream size                    : 296 MiB (7%)
    Title                          : Original
    Language                       : English
    Default                        : No
    Forced                         : No
    Audio #6
    ID                             : 7
    Format                         : AC-3
    Format/Info                    : Audio Coding 3
    Mode extension                 : CM (complete main)
    Format settings, Endianness    : Big
    Codec ID                       : A_AC3
    Duration                       : 1h 47mn
    Bit rate mode                  : Constant
    Bit rate                       : 224 Kbps
    Channel(s)                     : 2 channels
    Channel positions              : Front: L R
    Sampling rate                  : 48.0 KHz
    Bit depth                      : 16 bits
    Compression mode               : Lossy
    Stream size                    : 173 MiB (4%)
    Title                          : Commentary №1
    Language                       : English
    Default                        : No
    Forced                         : No
    Audio #7
    ID                             : 8
    Format                         : AC-3
    Format/Info                    : Audio Coding 3
    Mode extension                 : CM (complete main)
    Format settings, Endianness    : Big
    Codec ID                       : A_AC3
    Duration                       : 1h 47mn
    Bit rate mode                  : Constant
    Bit rate                       : 224 Kbps
    Channel(s)                     : 2 channels
    Channel positions              : Front: L R
    Sampling rate                  : 48.0 KHz
    Bit depth                      : 16 bits
    Compression mode               : Lossy
    Stream size                    : 173 MiB (4%)
    Title                          : Commentary №2
    Language                       : English
    Default                        : No
    Forced                         : No
    Text
    ID                             : 9
    Format                         : UTF-8
    Codec ID                       : S_TEXT/UTF8
    Codec ID/Info                  : UTF-8 Plain Text
    Title                          : Original
    Language                       : English
    Default                        : No
    Forced                         : No
    -
    Скачать .torrent

    Скачать торрент-файл бесплатно и на максимальной скорости!

    Как скачивать? · Что такое торрент? · Рейтинг и ограничения

    !ВНИМАНИЕ!
    Сайт не распространяет и не хранит электронные версии произведений, а занимается лишь лишь предоставлением доступа к создаваемому пользователями каталогу ссылок на торрент-файлы, которые содержат только списки хеш-сумм, убедительная просьба с жалобами обращаться напрямую к пользователю. Файлы для обмена на трекере предоставлены пользователями сайта, и администрация не несёт ответственности за их содержание. Просьба не заливать файлы, защищенные авторскими правами, а также файлы нелегального содержания!


    _________________
    [Профиль] [ЛС]
    Показать сообщения:    
    Ответить на тему

    Текущее время: Сегодня, в 22:15

    Часовой пояс: GMT + 2



    Вы не можете начинать темы
    Вы не можете отвечать на сообщения
    Вы не можете редактировать свои сообщения
    Вы не можете удалять свои сообщения
    Вы не можете голосовать в опросах
    Вы не можете прикреплять файлы к сообщениям
    Вы не можете скачивать файлы