BitTorrentTracker PerecTracker.org
BitTorrentTracker PerecTracker.org
    
Регистрация  ·  Вход
 
 · 
Забыли пароль?

  • Объект моего восхищения / The Object of My Affection (Николас Хитнер / Nicholas Hytner) [1998, США, комедия, мелодрама, WEB-DL 1080p] MVO (R5) + DVO (Премьер Видео Фильм) + Original + Sub (Rus, Eng)

    Ответить на тему
     
    Автор Сообщение

    Light

    Создавать темы 30-Май-2016 18:29

           

    [Цитировать]

    Объект моего восхищения / The Object of My Affection-Год выпуска: 1998
    Страна: США
    Студия: Twentieth Century Fox Film Corporation
    Жанр: комедия, мелодрама
    Продолжительность: 01:51:23
    Перевод:
    • Профессиональный (многоголосый закадровый) R5 / Двадцатый Век Фокс СНГ
    • Профессиональный (двухголосый закадровый) Премьер Видео Фильм |VHS|
    Cубтитры: русские, английские
    Оригинальная аудиодорожка: английский
    -Режиссер: Николас Хитнер / Nicholas Hytner-В ролях: Дженнифер Энистон, Пол Радд, Алан Алда, Найджел Хоторн, Джон Пэнкоу, Тим Дэли, Эллисон Дженни и другие.-Роли озвучивали:
    • R5: Сергей Быстрицкий, Никита Прозоровский, Наталья Гурзо.
    • Премьер Видео Фильм: Всеволод Кузнецов, Людмила Ильина.
    -Описание: Редко случается так, что люди хорошо подходят друг другу. Героям этой очаровательной комедии повезло. Джордж и Нина — прекрасная пара. У них масса общих интересов, они обожают танцы и живут вместе в очаровательной квартирке в Бруклине. Есть всего лишь две небольшие проблемки. Первая: Нина беременна и хочет, чтобы Джордж стал отцом ее ребенка. И вторая: Джордж — гей.-РЕЛИЗ ОТ: V.SERIJ2013-

    Спасибо

    • spartac - за покупку DVD-издания Двадцатый Век Фокс СНГ
    • Fikaloid - за оцифровку VHS-издания Премьер Видео Фильм
    • v.serij2013 (т.е., мне) - за обработку и сведение.
    -Качество: WEB-DL 1080p |FGT|
    Формат: MKV
    Видео кодек: H.264
    Аудио кодек: AC3
    Видео: H.264, 1920x1080 (16:9), 23.976 fps, ~10000 kbps, 0.201 bit/pixel
    Аудио:
    • русская |R5|: AC3, 48 kHz, 2 ch, 192 kbps
      русская |Премьер Видео Фильм|: AC3, 48 kHz, 2 ch, 192 kbps
    • английская |Оригинал|: AAC, 48 kHz, 2 ch, 192 kbps
    -Сэмпл \ Кинопоиск-

    Скриншоты

    Media Info

    General
    Unique ID                      : 249348609619932819308182834054373491992 (0xBB96CB9E67F5CC769AB3E59489F6C518)
    Complete name                  : E:\Video\HD\Movies (HD)\The Object Of My Affection (1998) (WEB-DL 1080p).mkv
    Format                         : Matroska
    Format version                 : Version 4 / Version 2
    File size                      : 8.16 GiB
    Duration                       : 1h 51mn
    Overall bit rate               : 10.5 Mbps
    Encoded date                   : UTC 2016-05-26 11:06:41
    Writing application            : mkvmerge v8.8.0 ('Wind at my back') 32bit
    Writing library                : libebml v1.3.3 + libmatroska v1.4.4
    DURATION                       : 01:51:23.168000000
    NUMBER_OF_FRAMES               : 208849
    NUMBER_OF_BYTES                : 160396032
    _STATISTICS_WRITING_APP        : mkvmerge v8.8.0 ('Wind at my back') 32bit
    _STATISTICS_WRITING_DATE_UTC   : 2016-05-26 11:06:41
    _STATISTICS_TAGS               : BPS DURATION NUMBER_OF_FRAMES NUMBER_OF_BYTES
    Video
    ID                             : 1
    Format                         : AVC
    Format/Info                    : Advanced Video Codec
    Format profile                 : High@L4.0
    Format settings, CABAC         : Yes
    Format settings, ReFrames      : 4 frames
    Codec ID                       : V_MPEG4/ISO/AVC
    Duration                       : 1h 51mn
    Bit rate mode                  : Constant
    Nominal bit rate               : 10 000 Kbps
    Width                          : 1 920 pixels
    Height                         : 1 080 pixels
    Display aspect ratio           : 16:9
    Frame rate mode                : Constant
    Frame rate                     : 23.976 fps
    Color space                    : YUV
    Chroma subsampling             : 4:2:0
    Bit depth                      : 8 bits
    Scan type                      : Progressive
    Bits/(Pixel*Frame)             : 0.201
    Language                       : English
    Default                        : Yes
    Forced                         : No
    Color primaries                : BT.709
    Transfer characteristics       : BT.709
    Matrix coefficients            : BT.709
    Color range                    : Limited
    Audio #1
    ID                             : 2
    Format                         : AC-3
    Format/Info                    : Audio Coding 3
    Mode extension                 : CM (complete main)
    Format settings, Endianness    : Big
    Codec ID                       : A_AC3
    Duration                       : 1h 51mn
    Bit rate mode                  : Constant
    Bit rate                       : 192 Kbps
    Channel(s)                     : 2 channels
    Channel positions              : Front: L R
    Sampling rate                  : 48.0 KHz
    Bit depth                      : 16 bits
    Compression mode               : Lossy
    Stream size                    : 153 MiB (2%)
    Title                          : MVO (R5 / Двадцатый Век Фокс СНГ)
    Language                       : Russian
    Default                        : Yes
    Forced                         : No
    Audio #2
    ID                             : 3
    Format                         : AC-3
    Format/Info                    : Audio Coding 3
    Mode extension                 : CM (complete main)
    Format settings, Endianness    : Big
    Codec ID                       : A_AC3
    Duration                       : 1h 51mn
    Bit rate mode                  : Constant
    Bit rate                       : 192 Kbps
    Channel(s)                     : 2 channels
    Channel positions              : Front: L R
    Sampling rate                  : 48.0 KHz
    Bit depth                      : 16 bits
    Compression mode               : Lossy
    Stream size                    : 153 MiB (2%)
    Title                          : DVO (Премьер Видео Фильм)
    Language                       : Russian
    Default                        : No
    Forced                         : No
    Audio #3
    ID                             : 4
    Format                         : AAC
    Format/Info                    : Advanced Audio Codec
    Format profile                 : LC
    Codec ID                       : A_AAC
    Duration                       : 1h 51mn
    Channel(s)                     : 2 channels
    Channel positions              : Front: L R
    Sampling rate                  : 48.0 KHz
    Compression mode               : Lossy
    Title                          : Original
    Language                       : English
    Default                        : No
    Forced                         : No
    Text #1
    ID                             : 5
    Format                         : UTF-8
    Codec ID                       : S_TEXT/UTF8
    Codec ID/Info                  : UTF-8 Plain Text
    Title                          : R5 / Двадцатый Век Фокс СНГ
    Language                       : Russian
    Default                        : No
    Forced                         : No
    Text #2
    ID                             : 6
    Format                         : UTF-8
    Codec ID                       : S_TEXT/UTF8
    Codec ID/Info                  : UTF-8 Plain Text
    Title                          : SDH
    Language                       : English
    Default                        : No
    Forced                         : No
    -
    Скачать .torrent

    Скачать торрент-файл бесплатно и на максимальной скорости!

    Как скачивать? · Что такое торрент? · Рейтинг и ограничения

    !ВНИМАНИЕ!
    Сайт не распространяет и не хранит электронные версии произведений, а занимается лишь лишь предоставлением доступа к создаваемому пользователями каталогу ссылок на торрент-файлы, которые содержат только списки хеш-сумм, убедительная просьба с жалобами обращаться напрямую к пользователю. Файлы для обмена на трекере предоставлены пользователями сайта, и администрация не несёт ответственности за их содержание. Просьба не заливать файлы, защищенные авторскими правами, а также файлы нелегального содержания!


    _________________
    [Профиль] [ЛС]
    Показать сообщения:    
    Ответить на тему

    Текущее время: Сегодня, в 22:02

    Часовой пояс: GMT + 2



    Вы не можете начинать темы
    Вы не можете отвечать на сообщения
    Вы не можете редактировать свои сообщения
    Вы не можете удалять свои сообщения
    Вы не можете голосовать в опросах
    Вы не можете прикреплять файлы к сообщениям
    Вы не можете скачивать файлы