BitTorrentTracker PerecTracker.org
BitTorrentTracker PerecTracker.org
    
Регистрация  ·  Вход
 
 · 
Забыли пароль?

  • Миссия в Майами / Ride Along 2 (Тим Стори / Tim Story) [2016, США, боевик, комедия, BDRip 720p] Dub (iTunes) + Sub Eng + Original Eng

    Ответить на тему
     
    Автор Сообщение

    Light

    Создавать темы 30-Май-2016 18:29

           

    [Цитировать]

    Миссия в Майами / Ride Along 2
    Страна: США
    Студия: Universal Pictures
    Жанр: боевик, комедия
    Год выпуска: 2016
    Продолжительность: 1:41:30
    Перевод: Профессиональный (дублированный) iTunes
    Cубтитры: английские
    Оригинальная аудиодорожка: английский
    Режиссер: Тим Стори / Tim Story
    В ролях: Айс Кьюб, Кевин Харт, Тика Самптер, Бенджамин Брэтт, Оливия Манн, Кен Жонг, Брюс МакГилл, Майкл Эдвард Роуз, Шерри Шеперд, Артуро дель Пуэрто
    Описание: Накануне собственной свадьбы Бен отправляется с братом своей будущей жены, крутым полицейским Джеймсом, в Майами, чтобы схватить наркодельца.

    Тип релиза: BDRip 720p
    Контейнер: MKV
    Видео: H.264/AVC, 1280x536, [2.4:1], 5500 kbps, 23.976 fps
    Аудио: Русский (дублированный) iTunes, 6 AC3, 6 ch, 48 KHz, 384 Kbps
    Аудио 2: English Oroginal, 6 AC3, 6 ch, 48 KHz, 640 Kbps
    Формат субтитров: softsub (SRT)

    MediaInfo

    Общее
    Формат : Matroska
    Версия формата : Version 2
    Размер файла : 4,63 Гбайт
    Продолжительность : 1 ч. 41 м.
    Общий поток : 6526 Кбит/сек
    Дата кодирования : UTC 2016-05-29 07:46:07
    Программа кодирования : mkvmerge v8.5.2 ('Crosses') 32bit
    Библиотека кодирования : libebml v1.3.3 + libmatroska v1.4.4
    Видео
    Идентификатор : 1
    Формат : AVC
    Формат/Информация : Advanced Video Codec
    Профиль формата : High@L4.1
    Параметр CABAC формата : Да
    Параметр ReFrames формата : 5 кадров
    Идентификатор кодека : V_MPEG4/ISO/AVC
    Продолжительность : 1 ч. 41 м.
    Битрейт : 5500 Кбит/сек
    Ширина : 1280 пикселей
    Высота : 536 пикселей
    Соотношение сторон : 2,40:1
    Режим частоты кадров : Постоянный
    Частота кадров : 23,976 (24000/1001) кадра/сек
    Цветовое пространство : YUV
    Субдискретизация насыщенности : 4:2:0
    Битовая глубина : 8 бит
    Тип развёртки : Прогрессивная
    Бит/(Пиксели*Кадры) : 0.334
    Размер потока : 3,90 Гбайт (84%)
    Библиотека кодирования : x264 core 148 r2638 7599210
    Настройки программы : cabac=1 / ref=5 / deblock=1:-2:-2 / analyse=0x3:0x133 / me=umh / subme=11 / psy=1 / psy_rd=1.05:0.00 / mixed_ref=1 / me_range=32 / chroma_me=1 / trellis=2 / 8x8dct=1 / cqm=0 / deadzone=21,11 / fast_pskip=0 / chroma_qp_offset=-2 / threads=6 / lookahead_threads=1 / sliced_threads=0 / nr=0 / decimate=0 / interlaced=0 / bluray_compat=0 / constrained_intra=0 / bframes=8 / b_pyramid=2 / b_adapt=2 / b_bias=0 / direct=3 / weightb=1 / open_gop=0 / weightp=2 / keyint=240 / keyint_min=23 / scenecut=40 / intra_refresh=0 / rc_lookahead=60 / rc=2pass / mbtree=0 / bitrate=5500 / ratetol=1.0 / qcomp=0.70 / qpmin=0 / qpmax=69 / qpstep=4 / cplxblur=20.0 / qblur=0.5 / vbv_maxrate=62500 / vbv_bufsize=78125 / nal_hrd=none / filler=0 / ip_ratio=1.20 / pb_ratio=1.20 / aq=3:0.85
    Default : Да
    Forced : Нет
    Аудио #1
    Идентификатор : 2
    Формат : AC-3
    Формат/Информация : Audio Coding 3
    Расширение режима : CM (complete main)
    Параметр Endianness формата : Big
    Идентификатор кодека : A_AC3
    Продолжительность : 1 ч. 41 м.
    Вид битрейта : Постоянный
    Битрейт : 384 Кбит/сек
    Каналы : 6 каналов
    Расположение каналов : Front: L C R, Side: L R, LFE
    Частота : 48,0 КГц
    Частота кадров : 31,250 кадров/сек (1536 spf)
    Метод сжатия : С потерями
    Задержка видео : 32 мс.
    Размер потока : 279 Мбайт (6%)
    Заголовок : Русский (iTunes)
    Язык : Russian
    Default : Да
    Forced : Нет
    Аудио #2
    Идентификатор : 3
    Формат : AC-3
    Формат/Информация : Audio Coding 3
    Расширение режима : CM (complete main)
    Параметр Endianness формата : Big
    Идентификатор кодека : A_AC3
    Продолжительность : 1 ч. 41 м.
    Вид битрейта : Постоянный
    Битрейт : 640 Кбит/сек
    Каналы : 6 каналов
    Расположение каналов : Front: L C R, Side: L R, LFE
    Частота : 48,0 КГц
    Частота кадров : 31,250 кадров/сек (1536 spf)
    Метод сжатия : С потерями
    Размер потока : 465 Мбайт (10%)
    Заголовок : English Original
    Язык : English
    Default : Нет
    Forced : Нет
    Текст #1
    Идентификатор : 4
    Формат : UTF-8
    Идентификатор кодека : S_TEXT/UTF8
    Идентификатор кодека/Информация : UTF-8 Plain Text
    Продолжительность : 1 ч. 36 м.
    Битрейт : 97 бит/сек
    Count of elements : 2204
    Размер потока : 68,9 Кбайт (0%)
    Язык : English
    Default : Нет
    Forced : Нет
    Текст #2
    Идентификатор : 5
    Формат : UTF-8
    Идентификатор кодека : S_TEXT/UTF8
    Идентификатор кодека/Информация : UTF-8 Plain Text
    Продолжительность : 1 ч. 36 м.
    Битрейт : 103 бит/сек
    Count of elements : 2312
    Размер потока : 72,9 Кбайт (0%)
    Заголовок : SDH
    Язык : English
    Default : Нет
    Forced : Нет
    Меню
    00:00:00.000 : en:Chapter 01
    00:03:29.584 : en:Chapter 02
    00:10:26.751 : en:Chapter 03
    00:14:00.089 : en:Chapter 04
    00:17:21.040 : en:Chapter 05
    00:22:33.269 : en:Chapter 06
    00:27:48.876 : en:Chapter 07
    00:34:33.530 : en:Chapter 08
    00:39:25.905 : en:Chapter 09
    00:42:26.002 : en:Chapter 10
    00:46:06.013 : en:Chapter 11
    00:50:51.173 : en:Chapter 12
    00:56:40.689 : en:Chapter 13
    01:00:04.726 : en:Chapter 14
    01:06:57.680 : en:Chapter 15
    01:13:09.051 : en:Chapter 16
    01:19:35.396 : en:Chapter 17
    01:23:06.732 : en:Chapter 18
    01:31:19.766 : en:Chapter 19
    01:36:58.938 : en:Chapter 20

    Скриншоты

    x.264 log

    -[Information] [29.05.2016 2:14:27] raw [info]: 1280x536p 0:0 @ 24000/1001 fps (cfr)
    -[Information] [29.05.2016 2:14:27] x264 [info]: using cpu capabilities: MMX2 SSE2Fast SSSE3 SSE4.2 AVX XOP FMA4 FMA3 LZCNT BMI1
    -[Information] [29.05.2016 2:14:27] x264 [info]: profile High, level 4.1
    -[Information] [29.05.2016 10:45:47] x264 [info]: frame I:2217 Avg QP:13.76 size:108311
    -[Information] [29.05.2016 10:45:47] x264 [info]: frame P:39950 Avg QP:15.57 size: 47705
    -[Information] [29.05.2016 10:45:47] x264 [info]: frame B:103849 Avg QP:16.46 size: 19653
    -[Information] [29.05.2016 10:45:47] x264 [info]: consecutive B-frames: 5.1% 7.7% 15.4% 28.0% 17.5% 22.7% 2.7% 0.5% 0.4%
    -[Information] [29.05.2016 10:45:47] x264 [info]: mb I I16..4: 2.9% 80.1% 17.0%
    -[Information] [29.05.2016 10:45:47] x264 [info]: mb P I16..4: 0.8% 16.8% 2.2% P16..4: 25.2% 35.6% 15.0% 3.3% 0.3% skip: 0.7%
    -[Information] [29.05.2016 10:45:47] x264 [info]: mb B I16..4: 0.1% 2.2% 0.3% B16..8: 32.5% 29.8% 6.8% direct: 8.5% skip:19.8% L0:39.6% L1:41.1% BI:19.3%
    -[Information] [29.05.2016 10:45:47] x264 [info]: 8x8 transform intra:84.2% inter:51.3%
    -[Information] [29.05.2016 10:45:47] x264 [info]: direct mvs spatial:97.9% temporal:2.1%
    -[Information] [29.05.2016 10:45:47] x264 [info]: coded y,uvDC,uvAC intra: 94.2% 94.3% 83.2% inter: 36.0% 43.1% 30.0%
    -[Information] [29.05.2016 10:45:47] x264 [info]: i16 v,h,dc,p: 13% 12% 2% 73%
    -[Information] [29.05.2016 10:45:47] x264 [info]: i8 v,h,dc,ddl,ddr,vr,hd,vl,hu: 12% 10% 6% 9% 12% 12% 13% 12% 14%
    -[Information] [29.05.2016 10:45:47] x264 [info]: i4 v,h,dc,ddl,ddr,vr,hd,vl,hu: 13% 10% 3% 8% 15% 14% 13% 10% 12%
    -[Information] [29.05.2016 10:45:47] x264 [info]: i8c dc,h,v,p: 47% 19% 15% 18%
    -[Information] [29.05.2016 10:45:47] x264 [info]: Weighted P-Frames: Y:1.4% UV:0.7%
    -[Information] [29.05.2016 10:45:47] x264 [info]: ref P L0: 52.4% 9.6% 21.3% 8.0% 7.5% 1.2% 0.0%
    -[Information] [29.05.2016 10:45:47] x264 [info]: ref B L0: 77.7% 16.1% 4.7% 1.4%
    -[Information] [29.05.2016 10:45:47] x264 [info]: ref B L1: 93.1% 6.9%
    -[Information] [29.05.2016 10:45:47] x264 [info]: kb/s:5499.97

    Сравнение с оригиналом (оригинал слева)



    Внимание! Торрент перезалит 29.05.2016 11:30(MSK). Причина: замена рипа на более качественный.
    Скачать .torrent

    Скачать торрент-файл бесплатно и на максимальной скорости!

    Как скачивать? · Что такое торрент? · Рейтинг и ограничения

    !ВНИМАНИЕ!
    Сайт не распространяет и не хранит электронные версии произведений, а занимается лишь лишь предоставлением доступа к создаваемому пользователями каталогу ссылок на торрент-файлы, которые содержат только списки хеш-сумм, убедительная просьба с жалобами обращаться напрямую к пользователю. Файлы для обмена на трекере предоставлены пользователями сайта, и администрация не несёт ответственности за их содержание. Просьба не заливать файлы, защищенные авторскими правами, а также файлы нелегального содержания!


    _________________
    [Профиль] [ЛС]
    Показать сообщения:    
    Ответить на тему

    Текущее время: Сегодня, в 00:32

    Часовой пояс: GMT + 2



    Вы не можете начинать темы
    Вы не можете отвечать на сообщения
    Вы не можете редактировать свои сообщения
    Вы не можете удалять свои сообщения
    Вы не можете голосовать в опросах
    Вы не можете прикреплять файлы к сообщениям
    Вы не можете скачивать файлы