BitTorrentTracker PerecTracker.org
BitTorrentTracker PerecTracker.org
    
Регистрация  ·  Вход
 
 · 
Забыли пароль?

  • Лучшие из лучших 3 / Best of the Best 3: No Turning Back (Филлип Ри / Phillip Ree) [1995, США, боевик, триллер, драма, криминал, BDRip 720p] 2x MVO (Вест Мультимедиа, РЕН-ТВ) + DVO (ТНТ) + 2x AVO + Sub (Rus, Eng) + Original Eng

    Ответить на тему
     
    Автор Сообщение

    Light

    Создавать темы 30-Май-2016 14:17

           

    [Цитировать]

    Лучшие из лучших 3 / Best of the Best 3: No Turning Back
    Страна: США
    Студия: Picture Securities, The Movie Group Inc.
    Жанр: боевик, триллер, драма, криминал
    Год выпуска: 1995
    Продолжительность: 01:30:46
    Перевод: Профессиональный (многоголосый закадровый) Вест Мультимедиа
    Перевод 2: Профессиональный (многоголосый закадровый) РЕН-ТВ
    Перевод 3: Профессиональный (двухголосый закадровый) ТНТ
    Перевод 4: Авторский (одноголосый закадровый) Л. Володарский
    Перевод 5: Авторский (одноголосый закадровый) А. Кашкин
    Cубтитры: русские, английские
    Оригинальная аудиодорожка: английский
    Режиссер: Филлип Ри / Phillip Ree
    В ролях: Филлип Ри, Кристофер МакДональд, Джина Гершон, Марк Ролстон, Питер Симмонс, Кристина Лосон, Ди Уоллес-Стоун, Майкл Бэйли Смит, Justin Brentley, Андра Р. Уорд
    Описание: Тихая «заштатная» Индиана. 17-летний Оуэн возвращается домой после бурных, но безуспешных поисков работы. Его мать требует от сына денег, не желая вдаваться в запутанные перипетии его судьбы.
    Но унизительная семейная жизнь для него хуже удавки. Он бежит от нее навстречу опасным приключениям, непредсказуемым ловушкам и попадает в неонацистский лагерь. А здесь без приемов каратэ любого ждет смерть.
    Доп. информация: За перевод Рен-тв спасибо ka4ygar, за синхронизацию перевода огромное спасибо Нордер.
    Сэмпл: https://www.sendspace.com/file/empe8k
    Тип релиза: BDRip 720p
    Контейнер: MKV
    Видео: MPEG-4 AVC, 9750 Кбит/с, 1280x720, 23.976 кадр/с
    Аудио 1: Russian AC3 / 2.0 / 48 kHz / 192 kbps / 16 bits |R5 / Вест Мультимедиа|
    Аудио 2: Russian AC3 / 2.0 / 48 kHz / 192 kbps / 16 bits |РЕН-ТВ|
    Аудио 3: Russian AC3 / 2.0 / 48 kHz / 192 kbps / 16 bits |ТНТ / ДТВ-Перец|
    Аудио 4: Russian AC3 / 2.0 / 48 kHz / 192 kbps / 16 bits |Л. Володарский|
    Аудио 5: Russian AC3 / 2.0 / 48 kHz / 192 kbps / 16 bits |А. Кашкин|
    Аудио 6: English DTS / 2.0 / 48 kHz / 1509 kbps / 24 bits
    Формат субтитров: softsub (SRT)

    MediaInfo

    General
    Unique ID : 214854508990182409330544716161539115823 (0xA1A379273EB713AEAE0BC1399A7C0B2F)
    Format : Matroska
    Format version : Version 2
    File size : 7.75 GiB
    Duration : 1h 30mn
    Overall bit rate : 12.2 Mbps
    Movie name : -=MediaClub - Odessit=-
    Encoded date : UTC 2016-05-28 15:17:22
    Writing application : mkvmerge v7.8.0 ('River Man') 32bit built on Apr 3 2015 12:11:22
    Writing library : libebml v1.3.1 + libmatroska v1.4.2
    Video
    ID : 1
    Format : AVC
    Format/Info : Advanced Video Codec
    Format profile : High@L4.1
    Format settings, CABAC : Yes
    Format settings, ReFrames : 8 frames
    Codec ID : V_MPEG4/ISO/AVC
    Duration : 1h 30mn
    Bit rate : 9 750 Kbps
    Width : 1 280 pixels
    Height : 720 pixels
    Display aspect ratio : 16:9
    Frame rate mode : Constant
    Frame rate : 23.976 fps
    Color space : YUV
    Chroma subsampling : 4:2:0
    Bit depth : 8 bits
    Scan type : Progressive
    Bits/(Pixel*Frame) : 0.441
    Stream size : 6.03 GiB (78%)
    Writing library : x264 core 142 r2389+41 02cb608 tMod [8-bit@4:2:0 X86_64]
    Encoding settings : cabac=1 / ref=8 / deblock=1:-3:-3 / analyse=0x3:0x113 / me=umh / subme=11 / psy=1 / fade_compensate=0.00 / psy_rd=1.00:0.00 / mixed_ref=1 / me_range=64 / chroma_me=1 / trellis=2 / 8x8dct=1 / cqm=0 / deadzone=21,11 / fast_pskip=0 / chroma_qp_offset=-2 / threads=6 / lookahead_threads=1 / sliced_threads=0 / nr=0 / decimate=0 / interlaced=0 / bluray_compat=0 / constrained_intra=0 / fgo=0 / bframes=12 / b_pyramid=2 / b_adapt=2 / b_bias=0 / direct=3 / weightb=1 / open_gop=0 / weightp=2 / keyint=240 / keyint_min=23 / scenecut=40 / intra_refresh=0 / rc=2pass / mbtree=0 / bitrate=9750 / ratetol=1.0 / qcomp=0.60 / qpmin=0:0:0 / qpmax=69:69:69 / qpstep=4 / cplxblur=20.0 / qblur=0.5 / ip_ratio=1.40 / pb_ratio=1.30 / aq=1:0.80 / aq-sensitivity=10.00 / aq-factor=1.00:1.00:1.00 / aq2=0 / aq3=0
    Language : English
    Default : Yes
    Forced : No
    Audio #1
    ID : 2
    Format : AC-3
    Format/Info : Audio Coding 3
    Mode extension : CM (complete main)
    Format settings, Endianness : Big
    Codec ID : A_AC3
    Duration : 1h 30mn
    Bit rate mode : Constant
    Bit rate : 192 Kbps
    Channel(s) : 2 channels
    Channel positions : Front: L R
    Sampling rate : 48.0 KHz
    Bit depth : 16 bits
    Compression mode : Lossy
    Stream size : 125 MiB (2%)
    Title : Профессиональный многоголосый (R5 / Вест Мультимедиа)
    Language : Russian
    Default : Yes
    Forced : No
    Audio #2
    ID : 3
    Format : AC-3
    Format/Info : Audio Coding 3
    Mode extension : CM (complete main)
    Format settings, Endianness : Big
    Codec ID : A_AC3
    Duration : 1h 30mn
    Bit rate mode : Constant
    Bit rate : 192 Kbps
    Channel(s) : 2 channels
    Channel positions : Front: L R
    Sampling rate : 48.0 KHz
    Bit depth : 16 bits
    Compression mode : Lossy
    Stream size : 125 MiB (2%)
    Title : Профессиональный многоголосый (РЕН-ТВ)
    Language : Russian
    Default : No
    Forced : No
    Audio #3
    ID : 4
    Format : AC-3
    Format/Info : Audio Coding 3
    Mode extension : CM (complete main)
    Format settings, Endianness : Big
    Codec ID : A_AC3
    Duration : 1h 30mn
    Bit rate mode : Constant
    Bit rate : 192 Kbps
    Channel(s) : 2 channels
    Channel positions : Front: L R
    Sampling rate : 48.0 KHz
    Bit depth : 16 bits
    Compression mode : Lossy
    Stream size : 125 MiB (2%)
    Title : Профессиональный двухголосый (ТНТ / ДТВ-Перец)
    Language : Russian
    Default : No
    Forced : No
    Audio #4
    ID : 5
    Format : AC-3
    Format/Info : Audio Coding 3
    Mode extension : CM (complete main)
    Format settings, Endianness : Big
    Codec ID : A_AC3
    Duration : 1h 30mn
    Bit rate mode : Constant
    Bit rate : 192 Kbps
    Channel(s) : 2 channels
    Channel positions : Front: L R
    Sampling rate : 48.0 KHz
    Bit depth : 16 bits
    Compression mode : Lossy
    Stream size : 125 MiB (2%)
    Title : Авторский одноголосый (Л. Володарский)
    Language : Russian
    Default : No
    Forced : No
    Audio #5
    ID : 6
    Format : AC-3
    Format/Info : Audio Coding 3
    Mode extension : CM (complete main)
    Format settings, Endianness : Big
    Codec ID : A_AC3
    Duration : 1h 30mn
    Bit rate mode : Constant
    Bit rate : 192 Kbps
    Channel(s) : 2 channels
    Channel positions : Front: L R
    Sampling rate : 48.0 KHz
    Bit depth : 16 bits
    Compression mode : Lossy
    Stream size : 125 MiB (2%)
    Title : Авторский одноголосый (А. Кашкин)
    Language : Russian
    Default : No
    Forced : No
    Audio #6
    ID : 7
    Format : DTS
    Format/Info : Digital Theater Systems
    Mode : 16
    Format settings, Endianness : Big
    Codec ID : A_DTS
    Duration : 1h 30mn
    Bit rate mode : Constant
    Bit rate : 1 509 Kbps
    Channel(s) : 2 channels
    Channel positions : Front: L R
    Sampling rate : 48.0 KHz
    Bit depth : 24 bits
    Compression mode : Lossy
    Stream size : 980 MiB (12%)
    Language : English
    Default : No
    Forced : No
    Text #1
    ID : 8
    Format : UTF-8
    Codec ID : S_TEXT/UTF8
    Codec ID/Info : UTF-8 Plain Text
    Language : Russian
    Default : No
    Forced : No
    Text #2
    ID : 9
    Format : UTF-8
    Codec ID : S_TEXT/UTF8
    Codec ID/Info : UTF-8 Plain Text
    Language : English
    Default : No
    Forced : No
    Menu
    00:00:00.000 : :Chapter 01
    00:05:57.857 : :Chapter 02
    00:10:43.643 : :Chapter 03
    00:17:18.662 : :Chapter 04
    00:25:04.544 : :Chapter 05
    00:35:03.142 : :Chapter 06
    00:44:39.259 : :Chapter 07
    00:54:11.248 : :Chapter 08
    01:00:02.599 : :Chapter 09
    01:05:51.656 : :Chapter 10
    01:16:11.275 : :Chapter 11
    01:25:06.559 : :Chapter 12

    Скриншоты

    Скачать .torrent

    Скачать торрент-файл бесплатно и на максимальной скорости!

    Как скачивать? · Что такое торрент? · Рейтинг и ограничения

    !ВНИМАНИЕ!
    Сайт не распространяет и не хранит электронные версии произведений, а занимается лишь лишь предоставлением доступа к создаваемому пользователями каталогу ссылок на торрент-файлы, которые содержат только списки хеш-сумм, убедительная просьба с жалобами обращаться напрямую к пользователю. Файлы для обмена на трекере предоставлены пользователями сайта, и администрация не несёт ответственности за их содержание. Просьба не заливать файлы, защищенные авторскими правами, а также файлы нелегального содержания!


    _________________
    [Профиль] [ЛС]
    Показать сообщения:    
    Ответить на тему

    Текущее время: Сегодня, в 20:11

    Часовой пояс: GMT + 2



    Вы не можете начинать темы
    Вы не можете отвечать на сообщения
    Вы не можете редактировать свои сообщения
    Вы не можете удалять свои сообщения
    Вы не можете голосовать в опросах
    Вы не можете прикреплять файлы к сообщениям
    Вы не можете скачивать файлы