BitTorrentTracker PerecTracker.org
BitTorrentTracker PerecTracker.org
    
Регистрация  ·  Вход
 
 · 
Забыли пароль?

  • Гарлемские ночи / Harlem Nights (Эдди Мерфи / Eddie Murphy) [1989, США, драма, комедия, криминал, WEB-DL 1080p] 2x MVO + DVO + 3x AVO + VO + Ukr + Original Eng + Sub (Rus, Eng)

    Ответить на тему
     
    Автор Сообщение

    Light

    Создавать темы 30-Май-2016 14:17

           

    [Цитировать]

    Гарлемские ночи / Harlem Nights-Год выпуска: 1989
    Страна: США
    Студия: Paramount Pictures
    Жанр: драма, комедия, криминал
    Продолжительность: 01:55:51
    Перевод:
    • Профессиональный (многоголосый закадровый) Paramount Channel
    • Профессиональный (многоголосый закадровый) ТВЦ
    • Профессиональный (двухголосый закадровый) Премьер Видео Фильм |VHS|
    • Авторский (одноголосый закадровый) Алексей Михалёв
    • Авторский (одноголосый закадровый) Василий Горчаков
    • Авторский (одноголосый закадровый) Андрей Гаврилов
    • Одноголосый закадровый Константин Филонов
    Cубтитры: русские, английские
    Оригинальная аудиодорожка: английский
    -Режиссер: Эдди Мерфи / Eddie Murphy-В ролях: Эдди Мёрфи, Ричард Прайор, Редд Фокс, Дэнни Айелло, Майкл Лернер, Делла Риз, Берлинда Толберт, Стэн Шоу, Джэсмин Гай, Вик Полицос, Лила Рошон, Дэвид Марсиано, Арсенио Холл, Томас Микал Форд, Дядя Рэй Мёрфи, Майкл Голдфингер, Джо Пекорато, Робин Харрис, Чарльз К. Мёрфи, Мигель А. Нуньес мл., Дези Арнез Хайнс мл., Чи-Ту Кумбука, Бобби МакГи, Рейнальдо Рей, Ник Сэвадж, Джонни Ли Смит и другие.-Роли озвучивали:
    • Paramount Channel: Диомид Виноградов, Олег Куценко, Екатерина Семёнова.
    • ТВЦ: Александр Рахленко, Алексей Инжеватов и другие.
    • Премьер Видео Фильм: Борис Миронов, Ирина Маликова.
    -Описание: Красавчику Брауну, известному под кличкой «Живчик», нет равных в Гарлеме. У «Живчика» есть пистолет. У «Живчика» — отличная голова и острый язык. И именно «Живчик» должен помешать ужасной банде Багзи Колхуна завладеть ночным клубом своего отчима — знаменитого «Сахарного» Рэя. Объединившись, родственнички решают устроить алчным негодяям невероятно коварную ловушку, выбраться откуда гангстеры уже не смогут.-РЕЛИЗ ОТ: V.SERIJ2013-

    Спасибо

    • vedigo - за запись звука с телеканала Paramount Channel
    • smit009 - за аудиодорожку ТВЦ
    • Fikaloid - за оцифровку VHS-издания Премьер Видео Фильм
    • p6041 - за аудиодорожки с авторскими переводами Алексея Михалёва, Василия Горчакова и Андрея Гаврилова и любительского перевода Константина Филонова
    • РОМЕО - за запись с украинского телеканала Iнтер
    • v.serij2013 (т.е., мне) - за обработку и сведение.
    -Качество: WEB-DL 1080p |LEGi0N|
    Формат: MKV
    Видео кодек: H.264
    Аудио кодек: AC3
    Видео: H.264, 1916x1076 (16:9), 23.976 fps, ~5119 kbps, 0.104 bit/pixel
    Аудио:
    • русская |Paramount Channel|: AC3, 48 kHz, 2 ch, 192 kbps
      русская |ТВЦ|: AC3, 48 kHz, 2 ch, 192 kbps
      русская |Премьер Видео Фильм|: AC3, 48 kHz, 2 ch, 384 kbps
      русская |Алексей Михалёв|: AC3, 48 kHz, 6 ch, 384 kbps
      русская |Василий Горчаков|: AC3, 48 kHz, 2 ch, 192 kbps
      русская |Андрей Гаврилов|: AC3, 48 kHz, 2 ch, 192 kbps
      русская |Константин Филонов|: AC3, 48 kHz, 2 ch, 192 kbps
    • украинская |Iнтер|: AC3, 48 kHz, 2 ch, 192 kbps
    • английская |Оригинал|: AC3, 48 kHz, 6 ch, 384 kbps
    -Сэмпл \ Кинопоиск-

    Скриншоты

    Media Info

    General
    Unique ID                      : 238243189023465199634662873777639380094 (0xB33BF81C17B8B3FCAA0640567425D47E)
    Complete name                  : E:\Video\HD\Movies (HD)\Harlem Nights (1989) (WEB-DL 1080p).mkv
    Format                         : Matroska
    Format version                 : Version 4 / Version 2
    File size                      : 6.13 GiB
    Duration                       : 1h 55mn
    Overall bit rate               : 7 573 Kbps
    Encoded date                   : UTC 2016-05-24 12:12:36
    Writing application            : mkvmerge v8.8.0 ('Wind at my back') 32bit
    Writing library                : libebml v1.3.3 + libmatroska v1.4.4
    DURATION                       : 01:46:47.177000000
    NUMBER_OF_FRAMES               : 1088
    NUMBER_OF_BYTES                : 46948
    _STATISTICS_WRITING_APP        : mkvmerge v8.8.0 ('Wind at my back') 32bit
    _STATISTICS_WRITING_DATE_UTC   : 2016-05-24 12:12:36
    _STATISTICS_TAGS               : BPS DURATION NUMBER_OF_FRAMES NUMBER_OF_BYTES
    Video
    ID                             : 1
    Format                         : AVC
    Format/Info                    : Advanced Video Codec
    Format profile                 : High@L4.0
    Format settings, CABAC         : Yes
    Format settings, ReFrames      : 4 frames
    Codec ID                       : V_MPEG4/ISO/AVC
    Duration                       : 1h 55mn
    Bit rate                       : 5 119 Kbps
    Width                          : 1 916 pixels
    Height                         : 1 076 pixels
    Display aspect ratio           : 16:9
    Frame rate mode                : Constant
    Frame rate                     : 23.976 fps
    Color space                    : YUV
    Chroma subsampling             : 4:2:0
    Bit depth                      : 8 bits
    Scan type                      : Progressive
    Bits/(Pixel*Frame)             : 0.104
    Stream size                    : 4.14 GiB (68%)
    Language                       : English
    Default                        : Yes
    Forced                         : No
    Color primaries                : BT.709
    Transfer characteristics       : BT.709
    Matrix coefficients            : BT.709
    Color range                    : Limited
    Audio #1
    ID                             : 2
    Format                         : AC-3
    Format/Info                    : Audio Coding 3
    Mode extension                 : CM (complete main)
    Format settings, Endianness    : Big
    Codec ID                       : A_AC3
    Duration                       : 1h 55mn
    Bit rate mode                  : Constant
    Bit rate                       : 192 Kbps
    Channel(s)                     : 2 channels
    Channel positions              : Front: L R
    Sampling rate                  : 48.0 KHz
    Bit depth                      : 16 bits
    Compression mode               : Lossy
    Stream size                    : 159 MiB (3%)
    Title                          : MVO (Paramount Channel)
    Language                       : Russian
    Default                        : Yes
    Forced                         : No
    Audio #2
    ID                             : 3
    Format                         : AC-3
    Format/Info                    : Audio Coding 3
    Mode extension                 : CM (complete main)
    Format settings, Endianness    : Big
    Codec ID                       : A_AC3
    Duration                       : 1h 55mn
    Bit rate mode                  : Constant
    Bit rate                       : 192 Kbps
    Channel(s)                     : 2 channels
    Channel positions              : Front: L R
    Sampling rate                  : 48.0 KHz
    Bit depth                      : 16 bits
    Compression mode               : Lossy
    Stream size                    : 159 MiB (3%)
    Title                          : MVO (ТВЦ)
    Language                       : Russian
    Default                        : No
    Forced                         : No
    Audio #3
    ID                             : 4
    Format                         : AC-3
    Format/Info                    : Audio Coding 3
    Mode extension                 : CM (complete main)
    Format settings, Endianness    : Big
    Codec ID                       : A_AC3
    Duration                       : 1h 55mn
    Bit rate mode                  : Constant
    Bit rate                       : 384 Kbps
    Channel(s)                     : 2 channels
    Channel positions              : Front: L R
    Sampling rate                  : 48.0 KHz
    Bit depth                      : 16 bits
    Compression mode               : Lossy
    Stream size                    : 318 MiB (5%)
    Title                          : DVO (Премьер Видео Фильм)
    Language                       : Russian
    Default                        : No
    Forced                         : No
    Audio #4
    ID                             : 5
    Format                         : AC-3
    Format/Info                    : Audio Coding 3
    Mode extension                 : CM (complete main)
    Format settings, Endianness    : Big
    Codec ID                       : A_AC3
    Duration                       : 1h 55mn
    Bit rate mode                  : Constant
    Bit rate                       : 384 Kbps
    Channel(s)                     : 6 channels
    Channel positions              : Front: L C R, Side: L R, LFE
    Sampling rate                  : 48.0 KHz
    Bit depth                      : 16 bits
    Compression mode               : Lossy
    Stream size                    : 318 MiB (5%)
    Title                          : AVO (Алексей Михалёв)
    Language                       : Russian
    Default                        : No
    Forced                         : No
    Audio #5
    ID                             : 6
    Format                         : AC-3
    Format/Info                    : Audio Coding 3
    Mode extension                 : CM (complete main)
    Format settings, Endianness    : Big
    Codec ID                       : A_AC3
    Duration                       : 1h 55mn
    Bit rate mode                  : Constant
    Bit rate                       : 192 Kbps
    Channel(s)                     : 2 channels
    Channel positions              : Front: L R
    Sampling rate                  : 48.0 KHz
    Bit depth                      : 16 bits
    Compression mode               : Lossy
    Stream size                    : 159 MiB (3%)
    Title                          : AVO (Василий Горчаков)
    Language                       : Russian
    Default                        : No
    Forced                         : No
    Audio #6
    ID                             : 7
    Format                         : AC-3
    Format/Info                    : Audio Coding 3
    Mode extension                 : CM (complete main)
    Format settings, Endianness    : Big
    Codec ID                       : A_AC3
    Duration                       : 1h 55mn
    Bit rate mode                  : Constant
    Bit rate                       : 192 Kbps
    Channel(s)                     : 2 channels
    Channel positions              : Front: L R
    Sampling rate                  : 48.0 KHz
    Bit depth                      : 16 bits
    Compression mode               : Lossy
    Stream size                    : 159 MiB (3%)
    Title                          : AVO (Андрей Гаврилов)
    Language                       : Russian
    Default                        : No
    Forced                         : No
    Audio #7
    ID                             : 8
    Format                         : AC-3
    Format/Info                    : Audio Coding 3
    Mode extension                 : CM (complete main)
    Format settings, Endianness    : Big
    Codec ID                       : A_AC3
    Duration                       : 1h 55mn
    Bit rate mode                  : Constant
    Bit rate                       : 192 Kbps
    Channel(s)                     : 2 channels
    Channel positions              : Front: L R
    Sampling rate                  : 48.0 KHz
    Bit depth                      : 16 bits
    Compression mode               : Lossy
    Stream size                    : 159 MiB (3%)
    Title                          : VO (Константин Филонов)
    Language                       : Russian
    Default                        : No
    Forced                         : No
    Audio #8
    ID                             : 9
    Format                         : AC-3
    Format/Info                    : Audio Coding 3
    Mode extension                 : CM (complete main)
    Format settings, Endianness    : Big
    Codec ID                       : A_AC3
    Duration                       : 1h 55mn
    Bit rate mode                  : Constant
    Bit rate                       : 192 Kbps
    Channel(s)                     : 2 channels
    Channel positions              : Front: L R
    Sampling rate                  : 48.0 KHz
    Bit depth                      : 16 bits
    Compression mode               : Lossy
    Stream size                    : 159 MiB (3%)
    Title                          : MVO (Iнтер)
    Language                       : Ukrainian
    Default                        : No
    Forced                         : No
    Audio #9
    ID                             : 10
    Format                         : AC-3
    Format/Info                    : Audio Coding 3
    Mode extension                 : CM (complete main)
    Format settings, Endianness    : Big
    Codec ID                       : A_AC3
    Duration                       : 1h 55mn
    Bit rate mode                  : Constant
    Bit rate                       : 384 Kbps
    Channel(s)                     : 6 channels
    Channel positions              : Front: L C R, Side: L R, LFE
    Sampling rate                  : 48.0 KHz
    Bit depth                      : 16 bits
    Compression mode               : Lossy
    Stream size                    : 318 MiB (5%)
    Title                          : Original
    Language                       : English
    Default                        : No
    Forced                         : No
    Text #1
    ID                             : 11
    Format                         : UTF-8
    Codec ID                       : S_TEXT/UTF8
    Codec ID/Info                  : UTF-8 Plain Text
    Language                       : Russian
    Default                        : No
    Forced                         : No
    Text #2
    ID                             : 12
    Format                         : UTF-8
    Codec ID                       : S_TEXT/UTF8
    Codec ID/Info                  : UTF-8 Plain Text
    Language                       : English
    Default                        : No
    Forced                         : No
    Menu
    00:00:00.000                   : en:Main Title
    00:02:38.000                   : en:Harlem 1918
    00:08:47.000                   : en:Sugar Ray's 20 Years Later
    00:21:17.000                   : en:Vera And Quick - Alley Fight
    00:29:45.000                   : en:"Hey, It's The Champ!"
    00:37:23.000                   : en:Cantone Visits Sugar Ray's
    00:42:25.000                   : en:"We Gonna Rob Bugsy Calhoune"
    00:54:02.000                   : en:"Oh, Quick Is Mine"
    00:59:29.000                   : en:"Are You Coming?"
    01:08:31.000                   : en:"I'm Gonna Get Myself A Real Man"
    01:11:12.000                   : en:"It Ain't Cool To Die At 27"
    01:22:00.000                   : en:"Quick, You Should Have Seen It"
    01:24:31.000                   : en:"I Love You Too"
    01:25:49.000                   : en:"I Ain't Coming Home No More"
    01:30:53.000                   : en:"And Now For The Main Event"
    01:39:19.000                   : en:"We're Making A Deposit"
    01:47:43.000                   : en:"It's A Set Up"
    01:49:32.000                   : en:"...And A Trunk Full Of Money"
    -
    Скачать .torrent

    Скачать торрент-файл бесплатно и на максимальной скорости!

    Как скачивать? · Что такое торрент? · Рейтинг и ограничения

    !ВНИМАНИЕ!
    Сайт не распространяет и не хранит электронные версии произведений, а занимается лишь лишь предоставлением доступа к создаваемому пользователями каталогу ссылок на торрент-файлы, которые содержат только списки хеш-сумм, убедительная просьба с жалобами обращаться напрямую к пользователю. Файлы для обмена на трекере предоставлены пользователями сайта, и администрация не несёт ответственности за их содержание. Просьба не заливать файлы, защищенные авторскими правами, а также файлы нелегального содержания!


    _________________
    [Профиль] [ЛС]
    Показать сообщения:    
    Ответить на тему

    Текущее время: Сегодня, в 08:51

    Часовой пояс: GMT + 2



    Вы не можете начинать темы
    Вы не можете отвечать на сообщения
    Вы не можете редактировать свои сообщения
    Вы не можете удалять свои сообщения
    Вы не можете голосовать в опросах
    Вы не можете прикреплять файлы к сообщениям
    Вы не можете скачивать файлы