BitTorrentTracker PerecTracker.org
BitTorrentTracker PerecTracker.org
    
Регистрация  ·  Вход
 
 · 
Забыли пароль?

  • [ATV3] Эдди «Орел» / Eddie the Eagle (Декстер Флетчер / Dexter Fletcher ) [2016, Великобритания, США, Германия , Драма, комедия, биография, спорт, WEB-DL, HD (1080p)] DUB + Original + sub (rus, eng, ukr)

    Ответить на тему
     
    Автор Сообщение

    rechyn

    Создавать темы 30-Май-2016 01:50

           

    [Цитировать]

    Эдди «Орел» / Eddie the Eagle
    «The hysterical true life story of Britain's most famous ski jumper Eddie 'The Eagle' Edwards and his journey to Olympic fame»
    7.779 / 10 7.60 / 10
    -Год выпуска: 2016
    Страна: Великобритания, США, Германия
    Жанр: Драма, комедия, биография, спорт
    Продолжительность: 01:46:10
    Перевод: Дублированный (iTunes)
    Оригинальная аудиодорожка: Есть
    Cубтитры: Русские форсированные, Английские форсированные, Украинские форсированные, Русские, Английские, Украинские
    Режиссёр: Декстер Флетчер
    Сценарий: Саймон Келтон, Шон Маколи
    Продюсер: Адам Болинг, Руперт Маконик, Дэвид Рейд
    Оператор: Джордж Ричмонд
    Композитор: Мэттью Марджесон
    Художник: Майк Ганн, Тим Блейк, Астрид Пёчке
    Монтаж: Мартин Уолш
    В ролях: Тэрон Эджертон, Хью Джекман, Кристофер Уокен, Джо Хартли, Том Костелло, Кит Аллен, Дикон Толсон, Джек Костелло, Марк Бентон, Тим МакИннерни
    Бюджет: $23 000 000
    Сборы в США: $15 789 389
    Сборы в мире: + $29 772 285 = $45 561 674
    Сборы в России: $462 428
    Мировая премьера: 26 января 2016
    Премьера (РФ): 7 апреля 2016, «Двадцатый Век Фокс СНГ»
    Описание: Фильм повествует о трамплинисте Эдди, по прозвищу «Орел». Он прославился благодаря своим неудачам, ибо на всех соревнованиях он занимал последние места.-Качество исходника: WEB-DL 1080p (BlueBird)
    Качество: WEB-DL
    Тип: HD (1080p)
    Контейнер: M4V
    Видео: H.264, 1916x800, 2.40:1, 4 539 Kbps, 23.976 (23976/1000) fps
    Аудио 1: Русский/Дублированный (iTunes), AAC / 2.0 / 157 Kbps / 48.0 KHz
    Аудио 2: Английский/Оригинальная дорожка , AAC / 2.0 / 158 Kbps / 48.0 KHz
    Аудио 3: Украинский/Дублированный (iTunes), AAC / 2.0 / 159 Kbps / 48.0 KHz
    Аудио 4: Русский/Дублированный (iTunes), AC-3 / 5.1 / 384 Kbps / 48.0 KHz
    Субтитры 1: Русские форсированные
    Субтитры 2: Английские форсированные
    Субтитры 3: Украинские форсированные
    Субтитры 4: Русские полные
    Субтитры 5: Английские полные
    Субтитры 6: Украинские полные
    -

    iTunes Meta Tags

    Sort Name: Eddie the Eagle
    XID: Apple:vendor_id:2016-394619
    contentID: 1080487524
    Copyright: © 2016 Twentieth Century Fox Film Corporation. All rights reserved.
    Screenwriters: Саймон Келтон, Шон Маколи
    Producers: Адам Болинг, Руперт Маконик, Дэвид Рейд
    Director: Декстер Флетчер
    Cast: Тэрон Эджертон, Хью Джекман, Кристофер Уокен, Джо Хартли, Том Костелло, Кит Аллен, Дикон Толсон, Джек Костелло, Марк Бентон, Тим МакИннерни, Антон Эльдаров, Александр Рахленко, Валерий Сторожик, Анастасия Лапина, Никита Прозоровский
    Studio: 20th Century Fox
    Rating: 4
    Long Description: Фильм повествует о трамплинисте Эдди, по прозвищу "Орел". Он прославился благодаря своим неудачам, ибо на всех соревнованиях он занимал последние места.
    Description: Фильм повествует о трамплинисте Эдди, по прозвищу "Орел". Он прославился благодаря своим неудачам, ибо на всех соревнованиях он занимал последние места.
    Release Date: 2016-01-26T08:00:00Z
    Genre: Comedy
    Artist: Dexter Fletcher
    Name: Eddie the Eagle

    MediaInfo

    General
    Complete name : /Users/imac/HandBrake/Eddie.The.Eagle.WEB-DL.1080p.m4v
    Format : MPEG-4
    Codec ID : M4V  (M4V /M4A /mp42/isom)
    File size : 4.01 GiB
    Duration : 1h 46mn
    Overall bit rate mode : Variable
    Overall bit rate : 5 405 Kbps
    Movie name : Eddie the Eagle
    Performer : Dexter Fletcher
    Director : Декстер Флетчер
    Actor : Тэрон Эджертон / Хью Джекман / Кристофер Уокен / Джо Хартли / Том Костелло / Кит Аллен / Дикон Толсон / Джек Костелло / Марк Бентон / Тим МакИннерни / Антон Эльдаров / Александр Рахленко / Валерий Сторожик / Анастасия Лапина / Никита Прозоровский
    Screenplay by : Саймон Келтон / Шон Маколи
    Producer : Адам Болинг / Руперт Маконик / Дэвид Рейд
    Production studio : 20th Century Fox
    Genre : Comedy
    ContentType : Short Film
    Description : Фильм повествует о трамплинисте Эдди, по прозвищу "Орел". Он прославился благодаря своим неудачам, ибо на всех соревнованиях он занимал последние места.
    Recorded date : UTC 2016-01-26 08:00:00
    Encoded date : UTC 2016-05-29 21:22:53
    Tagged date : UTC 2016-05-29 21:31:06
    Copyright : © 2016 Twentieth Century Fox Film Corporation. All rights reserved.
    Cover : Yes
    Rating : None
    Title/Sort : Eddie the Eagle
    LongDescription : Фильм повествует о трамплинисте Эдди, по прозвищу "Орел". Он прославился благодаря своим неудачам, ибо на всех соревнованиях он занимал последние места.
    AppleStoreCatalogID : 1080487524
    Vendor : Apple:vendor_id:2016-394619
    ContentRating : mpaa|PG-13|300|
    Video #1
    ID : 1
    Format : AVC
    Format/Info : Advanced Video Codec
    Format profile : High@L4
    Format settings, CABAC : Yes
    Format settings, ReFrames : 5 frames
    Codec ID : avc1
    Codec ID/Info : Advanced Video Coding
    Duration : 1h 46mn
    Bit rate : 4 539 Kbps
    Width : 1 916 pixels
    Height : 800 pixels
    Display aspect ratio : 2.40:1
    Frame rate mode : Variable
    Frame rate : 23.976 (23976/1000) fps
    Minimum frame rate : 12.195 fps
    Maximum frame rate : 1 000.000 fps
    Color space : YUV
    Chroma subsampling : 4:2:0
    Bit depth : 8 bits
    Scan type : Progressive
    Bits/(Pixel*Frame) : 0.123
    Stream size : 3.37 GiB (84%)
    Title : Main Program
    Language : English
    Encoded date : UTC 2016-05-29 21:22:53
    Tagged date : UTC 2016-05-29 21:24:39
    Color range : Limited
    Color primaries : BT.709
    Transfer characteristics : BT.709
    Matrix coefficients : BT.709
    Menus : 12,13
    Video #2
    ID : 13
    Format : JPEG
    Codec ID : jpeg
    Duration : 1h 46mn
    Bit rate mode : Variable
    Bit rate : 1 437 bps
    Width : 640 pixels
    Height : 267 pixels
    Display aspect ratio : 2.40:1
    Frame rate mode : Variable
    Frame rate : 0.004 fps
    Minimum frame rate : 0.003 fps
    Maximum frame rate : 0.006 fps
    Color space : YUV
    Chroma subsampling : 4:2:0
    Bit depth : 8 bits
    Compression mode : Lossy
    Bits/(Pixel*Frame) : 2.102
    Stream size : 1.03 MiB (0%)
    Title : Chapter Images
    Language : English
    Default : No
    Encoded date : UTC 2016-05-29 21:24:47
    Tagged date : UTC 2016-05-29 21:24:47
    Menu For : 1
    Audio #1
    ID : 2
    Format : AAC
    Format/Info : Advanced Audio Codec
    Format profile : LC
    Codec ID : 40
    Duration : 1h 45mn
    Bit rate mode : Variable
    Bit rate : 157 Kbps
    Maximum bit rate : 230 Kbps
    Channel(s) : 2 channels
    Channel positions : Front: L R
    Sampling rate : 48.0 KHz
    Frame rate : 46.875 fps (1024 spf)
    Compression mode : Lossy
    Stream size : 119 MiB (3%)
    Title : Russian Stereo
    Language : Russian
    Default : Yes
    Alternate group : 1
    Encoded date : UTC 2016-05-29 21:22:53
    Tagged date : UTC 2016-05-29 21:22:59
    Fallback From : 5
    Subtitles : 6,9
    Audio #2
    ID : 3
    Format : AAC
    Format/Info : Advanced Audio Codec
    Format profile : LC
    Codec ID : 40
    Duration : 1h 45mn
    Bit rate mode : Variable
    Bit rate : 158 Kbps
    Maximum bit rate : 241 Kbps
    Channel(s) : 2 channels
    Channel positions : Front: L R
    Sampling rate : 48.0 KHz
    Frame rate : 46.875 fps (1024 spf)
    Compression mode : Lossy
    Stream size : 119 MiB (3%)
    Title : English Stereo
    Language : English
    Default : No
    Alternate group : 1
    Encoded date : UTC 2016-05-29 21:22:53
    Tagged date : UTC 2016-05-29 21:22:59
    Subtitles : 7,10
    Audio #3
    ID : 4
    Format : AAC
    Format/Info : Advanced Audio Codec
    Format profile : LC
    Codec ID : 40
    Duration : 1h 45mn
    Bit rate mode : Variable
    Bit rate : 159 Kbps
    Maximum bit rate : 234 Kbps
    Channel(s) : 2 channels
    Channel positions : Front: L R
    Sampling rate : 48.0 KHz
    Frame rate : 46.875 fps (1024 spf)
    Compression mode : Lossy
    Stream size : 120 MiB (3%)
    Title : Ukrainian Stereo
    Language : Ukrainian
    Default : No
    Alternate group : 1
    Encoded date : UTC 2016-05-29 21:22:53
    Tagged date : UTC 2016-05-29 21:22:59
    Subtitles : 8,11
    Audio #4
    ID : 5
    Format : AC-3
    Format/Info : Audio Coding 3
    Mode extension : CM (complete main)
    Format settings, Endianness : Big
    Codec ID : ac-3
    Duration : 1h 45mn
    Bit rate mode : Constant
    Bit rate : 384 Kbps
    Channel(s) : 6 channels
    Channel positions : Front: L C R, Side: L R, LFE
    Sampling rate : 48.0 KHz
    Frame rate : 31.250 fps (1536 spf)
    Bit depth : 16 bits
    Compression mode : Lossy
    Stream size : 290 MiB (7%)
    Title : Russian DD 5.1
    Language : Russian
    Default : Inherited From: 2
    Alternate group : 1
    Encoded date : UTC 2016-05-29 21:22:53
    Tagged date : UTC 2016-05-29 21:24:39
    Fallback To : 2
    Subtitles : 6,9
    Text #1
    ID : 6
    Format : Timed Text
    Muxing mode : sbtl
    Codec ID : tx3g
    Duration : 1h 45mn
    Bit rate mode : Variable
    Bit rate : 2 bps
    Stream size : 1.66 KiB (0%)
    Title : Russian Forced
    Language : Russian
    Default : Yes
    Forced : Yes
    Alternate group : 2
    Encoded date : UTC 2016-05-29 21:22:53
    Tagged date : UTC 2016-05-29 21:24:39
    Subtitles For : 2,5
    Full Alternative : 9
    Text #2
    ID : 7
    Format : Timed Text
    Muxing mode : sbtl
    Codec ID : tx3g
    Duration : 47mn 54s
    Bit rate mode : Variable
    Bit rate : 0 bps
    Stream size : 120 Bytes (0%)
    Title : English Forced
    Language : English
    Default : No
    Forced : Yes
    Alternate group : 2
    Encoded date : UTC 2016-05-29 21:22:53
    Tagged date : UTC 2016-05-29 21:24:39
    Subtitles For : 3
    Full Alternative : 10
    Text #3
    ID : 8
    Format : Timed Text
    Muxing mode : sbtl
    Codec ID : tx3g
    Duration : 1h 45mn
    Bit rate mode : Variable
    Bit rate : 0 bps
    Stream size : 296 Bytes (0%)
    Title : Ukrainian Forced
    Language : Ukrainian
    Default : No
    Forced : Yes
    Alternate group : 2
    Encoded date : UTC 2016-05-29 21:22:53
    Tagged date : UTC 2016-05-29 21:24:39
    Subtitles For : 4
    Full Alternative : 11
    Text #4
    ID : 9
    Format : Timed Text
    Muxing mode : sbtl
    Codec ID : tx3g
    Duration : 1h 45mn
    Bit rate mode : Variable
    Bit rate : 93 bps
    Stream size : 71.7 KiB (0%)
    Title : Russian Full
    Language : Russian
    Default : No
    Forced : No
    Alternate group : 2
    Encoded date : UTC 2016-05-29 21:22:53
    Tagged date : UTC 2016-05-29 21:24:39
    Subtitles For : 2,5
    Forced Alternative : 6
    Text #5
    ID : 10
    Format : Timed Text
    Muxing mode : sbtl
    Codec ID : tx3g
    Duration : 1h 40mn
    Bit rate mode : Variable
    Bit rate : 64 bps
    Stream size : 47.2 KiB (0%)
    Title : English Full
    Language : English
    Default : No
    Forced : No
    Alternate group : 2
    Encoded date : UTC 2016-05-29 21:22:53
    Tagged date : UTC 2016-05-29 21:24:39
    Subtitles For : 3
    Forced Alternative : 7
    Text #6
    ID : 11
    Format : Timed Text
    Muxing mode : sbtl
    Codec ID : tx3g
    Duration : 1h 45mn
    Bit rate mode : Variable
    Bit rate : 96 bps
    Stream size : 74.3 KiB (0%)
    Title : Ukrainian Full
    Language : Ukrainian
    Default : No
    Forced : No
    Alternate group : 2
    Encoded date : UTC 2016-05-29 21:22:53
    Tagged date : UTC 2016-05-29 21:24:39
    Subtitles For : 4
    Forced Alternative : 8
    Menu #1
    00:00:00.000 : 1
    00:03:32.170 : 2
    00:08:14.160 : 3
    00:12:05.683 : 4
    00:17:53.572 : 5
    00:21:30.080 : 6
    00:26:18.576 : 7
    00:31:40.564 : 8
    00:37:10.352 : 9
    00:41:45.960 : 10
    00:47:11.327 : 11
    00:50:18.347 : 12
    00:53:38.588 : 13
    00:56:56.577 : 14
    01:02:21.902 : 15
    01:08:15.880 : 16
    01:11:41.293 : 17
    01:17:04.783 : 18
    01:19:59.582 : 19
    01:23:22.451 : 20
    01:27:43.587 : 21
    01:31:39.114 : 22
    01:36:52.051 : 23
    01:40:37.401 : 24
    Menu #2
    ID : 12
    Codec ID : text
    Duration : 1h 46mn
    Language : English
    Encoded date : UTC 2016-05-29 21:24:39
    Tagged date : UTC 2016-05-29 21:24:39
    Menu For : 1
    00:00:00.000 : 1
    00:03:32.170 : 2
    00:08:14.160 : 3
    00:12:05.683 : 4
    00:17:53.572 : 5
    00:21:30.080 : 6
    00:26:18.576 : 7
    00:31:40.564 : 8
    00:37:10.352 : 9
    00:41:45.960 : 10
    00:47:11.327 : 11
    00:50:18.347 : 12
    00:53:38.588 : 13
    00:56:56.577 : 14
    01:02:21.902 : 15
    01:08:15.880 : 16
    01:11:41.293 : 17
    01:17:04.783 : 18
    01:19:59.582 : 19
    01:23:22.451 : 20
    01:27:43.587 : 21
    01:31:39.114 : 22
    01:36:52.051 : 23
    01:40:37.401 : 24
    Bit rate mode : VBR

    Скриншоты

    -

    Релиз подготовлен для просмотра на Apple TV, iPad, iPhone, iPod Touch.
    Для просмотра данного релиза на компьютере с ОС Windows рекомендуется использовать VLC media player
    Скачать .torrent

    Скачать торрент-файл бесплатно и на максимальной скорости!

    Как скачивать? · Что такое торрент? · Рейтинг и ограничения

    !ВНИМАНИЕ!
    Сайт не распространяет и не хранит электронные версии произведений, а занимается лишь лишь предоставлением доступа к создаваемому пользователями каталогу ссылок на торрент-файлы, которые содержат только списки хеш-сумм, убедительная просьба с жалобами обращаться напрямую к пользователю. Файлы для обмена на трекере предоставлены пользователями сайта, и администрация не несёт ответственности за их содержание. Просьба не заливать файлы, защищенные авторскими правами, а также файлы нелегального содержания!


    _________________
    [Профиль] [ЛС]
    Показать сообщения:    
    Ответить на тему

    Текущее время: Сегодня, в 11:41

    Часовой пояс: GMT + 2



    Вы не можете начинать темы
    Вы не можете отвечать на сообщения
    Вы не можете редактировать свои сообщения
    Вы не можете удалять свои сообщения
    Вы не можете голосовать в опросах
    Вы не можете прикреплять файлы к сообщениям
    Вы не можете скачивать файлы