BitTorrentTracker PerecTracker.org
BitTorrentTracker PerecTracker.org
    
Регистрация  ·  Вход
 
 · 
Забыли пароль?

  • Тайна четырех принцесс (Олег Штром) [2014, Россия, комедия, фэнтези, HDTVRip]

    Ответить на тему
     
    Автор Сообщение

    Flirldrerve

    Создавать темы 29-Май-2016 17:31

           

    [Цитировать]

    Тайна четырех принцесс
    Страна: Россия
    Жанр: комедия, фэнтези
    Год выпуска: 2014
    Продолжительность: 01:26:51
    Cубтитры: нет
    Оригинальная аудиодорожка: русский-Режиссер: Олег Штром-В ролях: Кристина Орбакайте, Сергей Жигунов, Александр Стриженов, Юрий Гальцев, Юлия Паршута, Андрей Федорцов, Сергей Степанченко, Сергей Дорогов, Вадим Галыгин, Дмитрий Бурукин-Описание: В некотором царстве, в некотором государстве жил-был весёлый и добрый портной по имени Ганс. Он был молод и не очень богат, а если точнее практически беден, и жители царства-государства звали его просто портняжка Ганс. По воле судьбы он оказывается во дворце короля, который поручает Гансу раскрыть тайну своих дочерей — молодых принцесс, которые каждую ночь куда-то исчезают. А в это время в другом царстве королева Гурунда решила женить своих принцев-сыновей на дочерях соседних сказочно богатых королей. Но беда в том, что сами сыновья уже выбрали себе невест. Отказ сыновей повиноваться вызвал у Гурунды ярость. Она в сердцах проклинает их и превращает в воронов, оставив им только несколько часов на пребывание в человеческом облике — с полночи до трех утра.-
    -Качество видео: HDTVRip | HDTV 1080i
    Формат видео: AVI
    Видео: 720x304 (2.37:1), 25 fps, XviD build 73 ~2020 kbps avg, 0.37 bit/pixel
    Аудио: 48 kHz, AC3 Dolby Digital, 3/2 (L,C,R,l,r) + LFE ch, ~384 kbps-Скачать сэмпл

    MediaInfo

    Format                      : AVI
    Format/Info                 : Audio Video Interleave
    File size                   : 1.46 GiB
    Duration                    : 1h 26mn
    Overall bit rate            : 2 415 Kbps
    Writing application         : VirtualDubMod 1.5.10.3 | www.virtualdub-fr.org || (build 2550/release)
    Writing library             : VirtualDubMod build 2550/release
    Video
    ID                          : 0
    Format                      : MPEG-4 Visual
    Format profile              : Advanced Simple@L5
    Format settings, BVOP       : 1
    Format settings, QPel       : No
    Format settings, GMC        : No warppoints
    Format settings, Matrix     : Custom
    Codec ID                    : XVID
    Codec ID/Hint               : XviD
    Duration                    : 1h 26mn
    Bit rate                    : 2 021 Kbps
    Width                       : 720 pixels
    Height                      : 304 pixels
    Display aspect ratio        : 2.35:1
    Frame rate                  : 25.000 fps
    Color space                 : YUV
    Chroma subsampling          : 4:2:0
    Bit depth                   : 8 bits
    Scan type                   : Progressive
    Compression mode            : Lossy
    Bits/(Pixel*Frame)          : 0.369
    Stream size                 : 1.23 GiB (84%)
    Writing library             : XviD 73
    Audio
    ID                          : 1
    Format                      : AC-3
    Format/Info                 : Audio Coding 3
    Mode extension              : CM (complete main)
    Format settings, Endianness : Big
    Codec ID                    : 2000
    Duration                    : 1h 26mn
    Bit rate mode               : Constant
    Bit rate                    : 384 Kbps
    Channel(s)                  : 6 channels
    Channel positions           : Front: L C R, Side: L R, LFE
    Sampling rate               : 48.0 KHz
    Frame rate                  : 31.250 fps (1536 spf)
    Compression mode            : Lossy
    Stream size                 : 238 MiB (16%)
    Alignment                   : Split accross interleaves
    Interleave, duration        : 40 ms (1.00 video frame)
    Interleave, preload duratio : 500 ms

    Скриншоты

    Скачать .torrent

    Скачать торрент-файл бесплатно и на максимальной скорости!

    Как скачивать? · Что такое торрент? · Рейтинг и ограничения

    !ВНИМАНИЕ!
    Сайт не распространяет и не хранит электронные версии произведений, а занимается лишь лишь предоставлением доступа к создаваемому пользователями каталогу ссылок на торрент-файлы, которые содержат только списки хеш-сумм, убедительная просьба с жалобами обращаться напрямую к пользователю. Файлы для обмена на трекере предоставлены пользователями сайта, и администрация не несёт ответственности за их содержание. Просьба не заливать файлы, защищенные авторскими правами, а также файлы нелегального содержания!


    _________________
    [Профиль] [ЛС]
    Показать сообщения:    
    Ответить на тему

    Текущее время: Сегодня, в 22:27

    Часовой пояс: GMT + 2



    Вы не можете начинать темы
    Вы не можете отвечать на сообщения
    Вы не можете редактировать свои сообщения
    Вы не можете удалять свои сообщения
    Вы не можете голосовать в опросах
    Вы не можете прикреплять файлы к сообщениям
    Вы не можете скачивать файлы