BitTorrentTracker PerecTracker.org
BitTorrentTracker PerecTracker.org
    
Регистрация  ·  Вход
 
 · 
Забыли пароль?

  • Не будь злым / Non essere cattivo (Клаудио Калигари / Claudio Caligari) [2015, Италия, Драма, криминал, DVDRip] VO (Сибирский)

    Ответить на тему
     
    Автор Сообщение

    Light

    Создавать темы 29-Май-2016 17:31

           

    [Цитировать]

    Не будь злым / Non essere cattivo
    Страна: Италия
    Жанр: Драма, криминал
    Год выпуска: 2015
    Продолжительность: 01:38:13
    Перевод: Одноголосый закадровый Сибирский
    Cубтитры: нет
    Режиссер: Клаудио Калигари / Claudio Caligari
    В ролях: Лука Маринелли, Алессандро Борги, Роберта Маттеи, Сильвия д’Амико, Алессандро Бернардини, Валентино Кампителли, Данило Каппанелли, Мануэль Рулли, Эмануэла Фанелли, Джулия Греко
    Описание: Остия, предместья Рима, 1995 год. Здесь живут Чезаре и Витторио, два друга детства, оба выходцы из небогатых семей, которые живут, ударяясь в крайности, проводят свои дни и ночи между ночными клубами, наркотиками, алкоголем. Каждый из них ищет успеха, но, как показывают дальнейшие события, для каждого из них этот самый успех заключается в совсем разных вещах.
    Фильм «Не будь злым» снискал признание критиков и большой успех на кинофестивале в Венеции, где картина получила 8 призов, в том числе Премию Пазинетти за лучший фильм и лучшему актеру, исполнителю роли Чезаре Лука Маринелли. В роли Витторио в картине предстал Алессандро Борги.
    Режиссер Клаудио Калигари, создавая свой фильм, представлял его как своего рода третью часть трилогии. Первым фильмом он видел ленту выдающегося итальянского режиссера Пьера Паоло Пазолини «Аккатоне», чье зверское убийство на пляже в Остии в 1975 году до сих пор остается нераскрытым, второй картиной – собственную криминальную драму «Токсичная любовь», где действие разворачивается в тех же местах и при тех же обстоятельствах. Имя главного героя, Витторио, является отсылкой к имени главного персонажа «Аккатоне», в то время, как Чезаре звали ведущего героя из «Токсичной любви».
    Сэмпл: http://sendfile.su/1237947
    Качество видео: DVDRip
    Формат видео: AVI
    Видео: Xvid 720x304 25.000fps 1737kbps
    Аудио: Dolby AC3 48000Hz 6ch 384kbps

    MediaInfo

    Format : AVI
    Format/Info : Audio Video Interleave
    File size : 1.46 GiB
    Duration : 1h 38mn
    Overall bit rate : 2 131 Kbps
    Writing application : VirtualDubMod 1.5.10.3 | www.virtualdub-fr.org || (build 2550/release)
    Writing library : VirtualDubMod build 2550/release
    Video
    ID : 0
    Format : MPEG-4 Visual
    Format profile : Advanced Simple@L5
    Format settings, BVOP : 1
    Format settings, QPel : No
    Format settings, GMC : No warppoints
    Format settings, Matrix : Custom
    Codec ID : XVID
    Codec ID/Hint : XviD
    Duration : 1h 38mn
    Bit rate : 1 737 Kbps
    Width : 720 pixels
    Height : 304 pixels
    Display aspect ratio : 2.35:1
    Frame rate : 25.000 fps
    Color space : YUV
    Chroma subsampling : 4:2:0
    Bit depth : 8 bits
    Scan type : Progressive
    Compression mode : Lossy
    Bits/(Pixel*Frame) : 0.317
    Stream size : 1.19 GiB (82%)
    Writing library : XviD 73
    Audio
    ID : 1
    Format : AC-3
    Format/Info : Audio Coding 3
    Mode extension : CM (complete main)
    Format settings, Endianness : Big
    Codec ID : 2000
    Duration : 1h 38mn
    Bit rate mode : Constant
    Bit rate : 384 Kbps
    Channel(s) : 6 channels
    Channel positions : Front: L C R, Side: L R, LFE
    Sampling rate : 48.0 KHz
    Frame rate : 31.250 fps (1536 spf)
    Compression mode : Lossy
    Stream size : 270 MiB (18%)
    Alignment : Split accross interleaves
    Interleave, duration : 40 ms (1.00 video frame)
    Interleave, preload duration : 500 ms

    Скриншот c названием фильма

    Скриншоты






    Скачать .torrent

    Скачать торрент-файл бесплатно и на максимальной скорости!

    Как скачивать? · Что такое торрент? · Рейтинг и ограничения

    !ВНИМАНИЕ!
    Сайт не распространяет и не хранит электронные версии произведений, а занимается лишь лишь предоставлением доступа к создаваемому пользователями каталогу ссылок на торрент-файлы, которые содержат только списки хеш-сумм, убедительная просьба с жалобами обращаться напрямую к пользователю. Файлы для обмена на трекере предоставлены пользователями сайта, и администрация не несёт ответственности за их содержание. Просьба не заливать файлы, защищенные авторскими правами, а также файлы нелегального содержания!


    _________________
    [Профиль] [ЛС]
    Показать сообщения:    
    Ответить на тему

    Текущее время: Сегодня, в 02:22

    Часовой пояс: GMT + 2



    Вы не можете начинать темы
    Вы не можете отвечать на сообщения
    Вы не можете редактировать свои сообщения
    Вы не можете удалять свои сообщения
    Вы не можете голосовать в опросах
    Вы не можете прикреплять файлы к сообщениям
    Вы не можете скачивать файлы