BitTorrentTracker PerecTracker.org
BitTorrentTracker PerecTracker.org
    
Регистрация  ·  Вход
 
 · 
Забыли пароль?

  • Одной левой (Армен Ананикян, Виталий Рейнгеверц) [2015, Россия, комедия, мелодрама, фэнтези, WEB-DLRip]

    Ответить на тему
     
    Автор Сообщение

    Flirldrerve

    Создавать темы 29-Май-2016 00:51

           

    [Цитировать]

    Одной левой
    Страна: Россия
    Жанр: комедия, мелодрама, фэнтези
    Год выпуска: 2015
    Продолжительность: 01:19:09
    Cубтитры: нет
    Оригинальная аудиодорожка: русский-Режиссер: Армен Ананикян, Виталий Рейнгеверц-В ролях: Дмитрий Нагиев, Полина Гагарина, Роман Ладнев, Константин Крюков, Михаил Галустян, Ян Цапник, Наталья Костенева, Константин Юшкевич, Арман Ананикян, Ольга Дроздова, Борис Зверев, Екатерина Берлинская, Дарья Храмцова, Максим Киселев, Екатерина Бондарева, Ашот Габрелянов, Алексей Ягудин, Илана Юрьева-Описание: Макс — успешный скульптор. Он убежденный холостяк. У него нет отбоя от девушек и выгодных заказов. Привычный ход жизни нарушает собственная правая рука Макса. Она перестает слушаться его и ведет себя, как рука избалованной девушки. Друзья, клиенты и поклонницы думают, что Макс сошел с ума. Но причина не в этом, в его руку вселилась душа незнакомки. Справится ли герой одной левой?-
    -Качество видео: WEB-DLRip | WEB-DL | 1080p
    Формат видео: AVI
    Видео: 656x368 (1.78:1), 25 fps, XviD build 73 ~1176 kbps avg, 0.20 bit/pixel
    Аудио: 48 kHz, MPEG Layer 3, 2 ch, ~128.00 kbps avg-Скачать сэмпл

    MediaInfo

    Format                      : AVI
    Format/Info                 : Audio Video Interleave
    File size                   : 744 MiB
    Duration                    : 1h 19mn
    Overall bit rate            : 1 314 Kbps
    Writing application         : VirtualDubMod 1.5.10.3 | www.virtualdub-fr.org || (build 2550/release)
    Writing library             : VirtualDubMod build 2550/release
    Video
    ID                          : 0
    Format                      : MPEG-4 Visual
    Format profile              : Advanced Simple@L5
    Format settings, BVOP       : 1
    Format settings, QPel       : No
    Format settings, GMC        : No warppoints
    Format settings, Matrix     : Custom
    Codec ID                    : XVID
    Codec ID/Hint               : XviD
    Duration                    : 1h 19mn
    Bit rate                    : 1 176 Kbps
    Width                       : 656 pixels
    Height                      : 368 pixels
    Display aspect ratio        : 16:9
    Frame rate                  : 25.000 fps
    Color space                 : YUV
    Chroma subsampling          : 4:2:0
    Bit depth                   : 8 bits
    Scan type                   : Progressive
    Compression mode            : Lossy
    Bits/(Pixel*Frame)          : 0.195
    Stream size                 : 666 MiB (90%)
    Writing library             : XviD 73
    Audio
    ID                          : 1
    Format                      : MPEG Audio
    Format version              : Version 1
    Format profile              : Layer 3
    Codec ID                    : 55
    Codec ID/Hint               : MP3
    Duration                    : 1h 19mn
    Bit rate mode               : Constant
    Bit rate                    : 128 Kbps
    Channel(s)                  : 2 channels
    Sampling rate               : 48.0 KHz
    Compression mode            : Lossy
    Stream size                 : 72.5 MiB (10%)
    Alignment                   : Aligned on interleaves
    Interleave, duration        : 40 ms (1.00 video frame)
    Interleave, preload duratio : 504 ms
    Writing library             : LAME3.99r
    Encoding settings           : -m s -V 4 -q 2 -lowpass 17 -b 128

    Скриншоты

    Скачать .torrent

    Скачать торрент-файл бесплатно и на максимальной скорости!

    Как скачивать? · Что такое торрент? · Рейтинг и ограничения

    !ВНИМАНИЕ!
    Сайт не распространяет и не хранит электронные версии произведений, а занимается лишь лишь предоставлением доступа к создаваемому пользователями каталогу ссылок на торрент-файлы, которые содержат только списки хеш-сумм, убедительная просьба с жалобами обращаться напрямую к пользователю. Файлы для обмена на трекере предоставлены пользователями сайта, и администрация не несёт ответственности за их содержание. Просьба не заливать файлы, защищенные авторскими правами, а также файлы нелегального содержания!


    _________________
    [Профиль] [ЛС]
    Показать сообщения:    
    Ответить на тему

    Текущее время: Сегодня, в 06:31

    Часовой пояс: GMT + 2



    Вы не можете начинать темы
    Вы не можете отвечать на сообщения
    Вы не можете редактировать свои сообщения
    Вы не можете удалять свои сообщения
    Вы не можете голосовать в опросах
    Вы не можете прикреплять файлы к сообщениям
    Вы не можете скачивать файлы