BitTorrentTracker PerecTracker.org
BitTorrentTracker PerecTracker.org
    
Регистрация  ·  Вход
 
 · 
Забыли пароль?

  • Холостячки в Вегасе / Best Night Ever (Джейсон Фридберг / Jason Friedberg, Аарон Зельцер / Aaron Seltzer) [2013, США, комедия, BDRip] MVO (R5)

    Ответить на тему
     
    Автор Сообщение

    Light

    Создавать темы 28-Май-2016 12:15

           

    [Цитировать]

    Холостячки в Вегасе / Best Night Ever
    Страна: США
    Жанр: комедия
    Год выпуска: 2013
    Продолжительность: 01:22:05
    Перевод: Профессиональный (многоголосый закадровый) R5
    Cубтитры: нет
    Оригинальная аудиодорожка: нет-Режиссер: Джейсон Фридберг / Jason Friedberg, Аарон Зельцер / Aaron Seltzer-В ролях: Дезри Холл, Эдвина Ричард, Саманта Колберн, Криста Флэнеган, Энди Фавро, Ник Стил, Линетт Дюпри, Джейсон Бобьен, Эймин Джозеф, Джеймс Джордан-Описание: Перед тем как выйти замуж, молодая красотка отправляется с тремя лучшими подружками на свою последнюю холостяцкую вечеринку в Лас-Вегас. Все, что ни случается, к лучшему - гласит народная мудрость. Неужели это так, даже если все сумасшествие, происходящее в Лас-Вегасе, будет записано на видео?..-
    -Качество видео: BDRip | Best Night Ever (2013) 1080p BD-Remux HDClub
    Формат видео: AVI
    Видео: 688x384 (1.79:1), 23.976 fps, XviD build 73 ~1128 kbps avg, 0.18 bit/pixel
    Аудио: 48 kHz, MPEG Layer 3, 2 ch, ~128.00 kbps avg-Скачать сэмпл

    MediaInfo

    Format                      : AVI
    Format/Info                 : Audio Video Interleave
    File size                   : 743 MiB
    Duration                    : 1h 22mn
    Overall bit rate            : 1 266 Kbps
    Writing application         : VirtualDubMod 1.5.10.3 | www.virtualdub-fr.org || (build 2550/release)
    Writing library             : VirtualDubMod build 2550/release
    Video
    ID                          : 0
    Format                      : MPEG-4 Visual
    Format profile              : Advanced Simple@L5
    Format settings, BVOP       : 1
    Format settings, QPel       : No
    Format settings, GMC        : No warppoints
    Format settings, Matrix     : Custom
    Codec ID                    : XVID
    Codec ID/Hint               : XviD
    Duration                    : 1h 22mn
    Bit rate                    : 1 129 Kbps
    Width                       : 688 pixels
    Height                      : 384 pixels
    Display aspect ratio        : 16:9
    Frame rate                  : 23.976 (23976/1000) fps
    Color space                 : YUV
    Chroma subsampling          : 4:2:0
    Bit depth                   : 8 bits
    Scan type                   : Progressive
    Compression mode            : Lossy
    Bits/(Pixel*Frame)          : 0.178
    Stream size                 : 663 MiB (89%)
    Writing library             : XviD 73
    Audio
    ID                          : 1
    Format                      : MPEG Audio
    Format version              : Version 1
    Format profile              : Layer 3
    Codec ID                    : 55
    Codec ID/Hint               : MP3
    Duration                    : 1h 22mn
    Bit rate mode               : Constant
    Bit rate                    : 128 Kbps
    Channel(s)                  : 2 channels
    Sampling rate               : 48.0 KHz
    Compression mode            : Lossy
    Stream size                 : 75.2 MiB (10%)
    Alignment                   : Aligned on interleaves
    Interleave, duration        : 42 ms (1.00 video frame)
    Interleave, preload duratio : 504 ms
    Writing library             : LAME3.99r
    Encoding settings           : -m s -V 4 -q 2 -lowpass 17 -b 128

    Скриншоты

    Скачать .torrent

    Скачать торрент-файл бесплатно и на максимальной скорости!

    Как скачивать? · Что такое торрент? · Рейтинг и ограничения

    !ВНИМАНИЕ!
    Сайт не распространяет и не хранит электронные версии произведений, а занимается лишь лишь предоставлением доступа к создаваемому пользователями каталогу ссылок на торрент-файлы, которые содержат только списки хеш-сумм, убедительная просьба с жалобами обращаться напрямую к пользователю. Файлы для обмена на трекере предоставлены пользователями сайта, и администрация не несёт ответственности за их содержание. Просьба не заливать файлы, защищенные авторскими правами, а также файлы нелегального содержания!


    _________________
    [Профиль] [ЛС]
    Показать сообщения:    
    Ответить на тему

    Текущее время: Сегодня, в 02:59

    Часовой пояс: GMT + 2



    Вы не можете начинать темы
    Вы не можете отвечать на сообщения
    Вы не можете редактировать свои сообщения
    Вы не можете удалять свои сообщения
    Вы не можете голосовать в опросах
    Вы не можете прикреплять файлы к сообщениям
    Вы не можете скачивать файлы