Register  ·  Log in
Forgot password?

  • Алиса в Зазеркалье / Alice Through the Looking Glass (2016) CAMRip *PROPER* | D

    Reply to topic
    Author Message


    Post 28-May-2016 11:37



    Алиса в Зазеркалье / Alice Through the Looking Glass
    Страна: США Производство: Legend3D, Roth Films, Tim Burton Productions, Walt Disney Pictures
    Год выпуска: 2016
    Жанр: фэнтези, приключения, семейный
    Продолжительность: 01:45:57
    Режиссер: Джеймс Бобин
    Авторы сценария: Линда Вулвертон, Льюис Кэрролл
    В ролях: Миа Васиковска, Джонни Депп, Хелена Бонем Картер, Энн Хэтэуэй, Саша Барон Коэн, Рис Иванс, Мэтт Лукас, Линдси Дункан
    Описание: На этот раз главной героине предстоит отправиться в путешествие во времени, полное неожиданностей и ярких открытий, чтобы спасти своего друга, Безумного Шляпника...

    Перевод: Профессиональный (полное дублирование)
    Субтитры: нет-Качество: CAMRip *PROPER*
    Формат: АVI
    Видео кодек: XviD
    Аудио кодек: АС3
    Видео: 720x336 (2.143), 29.970 fps, XviD ~1 327 kbps avg
    Аудио: 48.0 kHz, AC3 Dolby Digital, 2/0 (L,R) ch, ~192 kbps
    Дата премьеры (мир): 25 мая 2016
    Дата премьеры (РФ): 26 мая 2016, «WDSSPR»
    ПРИМЕЧАНИЕ: около 3-х минут отсутствует перевод Сравнение CAMRip *PROPER* vs CAMRip

    Media Info

    Format : AVI
    Format/Info : Audio Video Interleave
    Overall bit rate : 1 533 Kbps
    Writing application : VirtualDubMod | (build 2550/release)
    Writing library : VirtualDubMod build 2550/release
    ID : 0
    Format : MPEG-4 Visual
    Format profile : Advanced Simple@L5
    Format settings, BVOP : 2
    Format settings, QPel : No
    Format settings, GMC : No warppoints
    Format settings, Matrix : Custom
    Codec ID : XVID
    Codec ID/Hint : XviD
    Bit rate : 1 327 Kbps
    Width : 720 pixels
    Height : 336 pixels
    Display aspect ratio : 2.143
    Frame rate : 29.970 fps
    Color space : YUV
    Chroma subsampling : 4:2:0
    Bit depth : 8 bits
    Scan type : Progressive
    Compression mode : Lossy
    Bits/(Pixel*Frame) : 0.183
    Stream size : 9.77 MiB (87%)
    Writing library : XviD 1.2.1 (UTC 2008-12-04)
    ID : 1
    Format : AC-3
    Format/Info : Audio Coding 3
    Mode extension : CM (complete main)
    Format settings, Endianness : Big
    Codec ID : 2000
    Bit rate mode : Constant
    Bit rate : 192 Kbps
    Channel(s) : 2 channels
    Channel positions : Front: L R
    Sampling rate : 48.0 KHz
    Compression mode : Lossy
    Stream size : 1.41 MiB (13%)
    Alignment : Split accross interleaves
    Interleave, duration : 34 ms (1.01 video frame)
    Interleave, preload duration : 500 ms


    Download .torrent

    Download free and at maximum speed!

    How to Download? · What is a torrent? · Ratings and Limitations

    The site does not extend and does not store electronic(digital) versions of products, and only gives access to a reference catalogue created by users on torrent-files which contain only lists of the hash-sums, the earnest entreaty, with complaints(abuse) to access directly to the user. Files for an exchange on tracker are given by users of a site, and the administration does not bear the responsibility for their maintenance. The request to not fill in the files protected by copyrights, and also files of the illegal maintenance!

    [Profile] [PM]
    Display posts from previous:    
    Reply to topic

    The time now is: Today 13:18

    All times are GMT + 3 Hours

    You cannot post new topics in this forum
    You cannot reply to topics in this forum
    You cannot edit your posts in this forum
    You cannot delete your posts in this forum
    You cannot vote in polls in this forum
    You cannot attach files in this forum
    You cannot download files in this forum