BitTorrentTracker PerecTracker.org
BitTorrentTracker PerecTracker.org
    
Регистрация  ·  Вход
 
 · 
Забыли пароль?

  • Алиса в Зазеркалье / Alice Through the Looking Glass (2016) CAMRip *PROPER* | D

    Ответить на тему
     
    Автор Сообщение

    BOSS

    Создавать темы 28-Май-2016 10:37

           

    [Цитировать]

    Алиса в Зазеркалье / Alice Through the Looking Glass
    Страна: США Производство: Legend3D, Roth Films, Tim Burton Productions, Walt Disney Pictures
    Год выпуска: 2016
    Жанр: фэнтези, приключения, семейный
    Продолжительность: 01:45:57
    Режиссер: Джеймс Бобин
    Авторы сценария: Линда Вулвертон, Льюис Кэрролл
    В ролях: Миа Васиковска, Джонни Депп, Хелена Бонем Картер, Энн Хэтэуэй, Саша Барон Коэн, Рис Иванс, Мэтт Лукас, Линдси Дункан
    Описание: На этот раз главной героине предстоит отправиться в путешествие во времени, полное неожиданностей и ярких открытий, чтобы спасти своего друга, Безумного Шляпника...

    Перевод: Профессиональный (полное дублирование)
    Субтитры: нет-Качество: CAMRip *PROPER*
    Формат: АVI
    Видео кодек: XviD
    Аудио кодек: АС3
    Видео: 720x336 (2.143), 29.970 fps, XviD ~1 327 kbps avg
    Аудио: 48.0 kHz, AC3 Dolby Digital, 2/0 (L,R) ch, ~192 kbps
    Дата премьеры (мир): 25 мая 2016
    Дата премьеры (РФ): 26 мая 2016, «WDSSPR»
    ПРИМЕЧАНИЕ: ПРИСУТСТВУЕТ РЕКЛАМА!
    ПРИМЕЧАНИЕ: около 3-х минут отсутствует перевод Сравнение CAMRip *PROPER* vs CAMRip

    Media Info

    General
    Format : AVI
    Format/Info : Audio Video Interleave
    Overall bit rate : 1 533 Kbps
    Writing application : VirtualDubMod 1.5.10.3 | (build 2550/release)
    Writing library : VirtualDubMod build 2550/release
    Video
    ID : 0
    Format : MPEG-4 Visual
    Format profile : Advanced Simple@L5
    Format settings, BVOP : 2
    Format settings, QPel : No
    Format settings, GMC : No warppoints
    Format settings, Matrix : Custom
    Codec ID : XVID
    Codec ID/Hint : XviD
    Bit rate : 1 327 Kbps
    Width : 720 pixels
    Height : 336 pixels
    Display aspect ratio : 2.143
    Frame rate : 29.970 fps
    Color space : YUV
    Chroma subsampling : 4:2:0
    Bit depth : 8 bits
    Scan type : Progressive
    Compression mode : Lossy
    Bits/(Pixel*Frame) : 0.183
    Stream size : 9.77 MiB (87%)
    Writing library : XviD 1.2.1 (UTC 2008-12-04)
    Audio
    ID : 1
    Format : AC-3
    Format/Info : Audio Coding 3
    Mode extension : CM (complete main)
    Format settings, Endianness : Big
    Codec ID : 2000
    Bit rate mode : Constant
    Bit rate : 192 Kbps
    Channel(s) : 2 channels
    Channel positions : Front: L R
    Sampling rate : 48.0 KHz
    Compression mode : Lossy
    Stream size : 1.41 MiB (13%)
    Alignment : Split accross interleaves
    Interleave, duration : 34 ms (1.01 video frame)
    Interleave, preload duration : 500 ms

    Скриншоты

    Скачать .torrent

    Скачать торрент-файл бесплатно и на максимальной скорости!

    Как скачивать? · Что такое торрент? · Рейтинг и ограничения

    !ВНИМАНИЕ!
    Сайт не распространяет и не хранит электронные версии произведений, а занимается лишь лишь предоставлением доступа к создаваемому пользователями каталогу ссылок на торрент-файлы, которые содержат только списки хеш-сумм, убедительная просьба с жалобами обращаться напрямую к пользователю. Файлы для обмена на трекере предоставлены пользователями сайта, и администрация не несёт ответственности за их содержание. Просьба не заливать файлы, защищенные авторскими правами, а также файлы нелегального содержания!

    [Профиль] [ЛС]
    Показать сообщения:    
    Ответить на тему

    Текущее время: Сегодня, в 04:28

    Часовой пояс: GMT + 2



    Вы не можете начинать темы
    Вы не можете отвечать на сообщения
    Вы не можете редактировать свои сообщения
    Вы не можете удалять свои сообщения
    Вы не можете голосовать в опросах
    Вы не можете прикреплять файлы к сообщениям
    Вы не можете скачивать файлы