BitTorrentTracker PerecTracker.org
BitTorrentTracker PerecTracker.org
    
Регистрация  ·  Вход
 
 · 
Забыли пароль?

  • Он никогда не умирал / He Never Died (Джейсон Кравчик / Jason Krawczyk) [2015, США, Канада, триллер, драма, комедия, BDRip 720p] [GER Transfer] MVO (Paradox & Recent Films) + DVO (Мтрск & StacyLagler) + Sub Rus, Eng

    Ответить на тему
     
    Автор Сообщение

    Light

    Создавать темы 27-Май-2016 15:19

           

    [Цитировать]

    Он никогда не умирал / He Never Died«Bullets. Blood. Bingo»
    Страна: США, Канада
    Жанр: триллер, драма, комедия
    Год выпуска: 2015
    Продолжительность: 01:37:17
    Перевод 1: Любительский (многоголосый закадровый) "Paradox" & "Recent Films"
    Перевод 2: Любительский (двухголосый закадровый) Мтрск & StacyLagler
    Cубтитры: русские (Сергей Гуреев), английские [Full, SDH]
    Оригинальная аудиодорожка: английский
    -
    Режиссер: Джейсон Кравчик / Jason Krawczyk
    В ролях: Генри Роллинз, Бу Бу Стюарт, Кейт Гринхаус, Джордан Тодоси, Дэвид Ричмонд-Пек, Джеймс Кейд, Стивен Огг, Скотт Эджкомб, Роберт Томас, Элиас Эдраки
    -
    Описание: Джек питается кровью не из-за своих кулинарных пристрастий: она помогает ему продлить существование. Джек живёт очень долго... очень долго. Но у долгой жизни есть свои неприятные стороны и моменты: главным недостатком Джек считает скуку - в скольких лотереях он поучаствовал, как он взрывал свой организм адреналином, сколько он телешоу пересмотрел, но ему от этого ещё скучнее. Всё чаще и чаще Джек задаётся вопросом: а стоит ли жить для того, чтобы скучать? Но вскоре ему скучать не придётся, ведь он столкнётся с целым ворохом проблем, которые свалятся на него после того, как он повстречает девушку по имени Андреа. Она утверждает, что Джек - её отец.

    Тип релиза: BDRip 720p
    Контейнер: MKV
    Видео: H.264 / NTSC 16:9 / 1280x544 (2,35:1) / 4515 kbps / 23,976 fps / 0.270 bit/pixel / High@L4.1
    Аудио 1: Russian / Dolby Digital Audio / 5.1 Ch / 48 kHz / 640 kbps / 16 bit / MVO
    Аудио 2: Russian / Dolby Digital Audio / 2.0 Ch / 48 kHz / 192 kbps / 16 bit / DVO
    Аудио 3: English / Dolby Digital Audio / 5.1 Ch / 48 kHz / 640 kbps / 16 bit / Original
    Формат субтитров: softsub (SRT)
    Навигация по главам: есть

    MediaInfo

    Общее
    Уникальный идентификатор : 202203331191148148656430776861977003894 (0x981EF1EE1D4CA71692B388489C58C776)
    Полное имя : N:\BDRip 720p\He Never Died.2015.BDRip.720p.mkv
    Формат : Matroska
    Версия формата : Version 4 / Version 2
    Размер файла : 4,07 Гбайт
    Продолжительность : 1 ч. 37 м.
    Общий поток : 5989 Кбит/сек
    Дата кодирования : UTC 2016-05-26 13:05:09
    Программа кодирования : mkvmerge v9.1.0 ('Little Earthquakes') 64bit
    Библиотека кодирования : libebml v1.3.3 + libmatroska v1.4.4
    Видео
    Идентификатор : 1
    Формат : AVC
    Формат/Информация : Advanced Video Codec
    Профиль формата : High@L4.1
    Параметр CABAC формата : Да
    Параметр ReFrames формата : 12 кадров
    Идентификатор кодека : V_MPEG4/ISO/AVC
    Продолжительность : 1 ч. 37 м.
    Битрейт : 4515 Кбит/сек
    Ширина : 1280 пикселей
    Высота : 544 пикселя
    Соотношение сторон : 2,35:1
    Режим частоты кадров : Постоянный
    Частота кадров : 23,976 (24000/1001) кадра/сек
    Цветовое пространство : YUV
    Субдискретизация насыщенности : 4:2:0
    Битовая глубина : 8 бит
    Тип развёртки : Прогрессивная
    Бит/(Пиксели*Кадры) : 0.270
    Размер потока : 3,07 Гбайт (75%)
    Библиотека кодирования : x264 core 148 r2665 a01e339
    Настройки программы : cabac=1 / ref=12 / deblock=1:-3:-3 / analyse=0x3:0x133 / me=umh / subme=11 / psy=1 / psy_rd=1.00:0.05 / mixed_ref=1 / me_range=32 / chroma_me=1 / trellis=2 / 8x8dct=1 / cqm=0 / deadzone=21,11 / fast_pskip=0 / chroma_qp_offset=-3 / threads=6 / lookahead_threads=1 / sliced_threads=0 / nr=0 / decimate=0 / interlaced=0 / bluray_compat=0 / constrained_intra=0 / bframes=10 / b_pyramid=2 / b_adapt=2 / b_bias=0 / direct=3 / weightb=1 / open_gop=0 / weightp=2 / keyint=250 / keyint_min=24 / scenecut=40 / intra_refresh=0 / rc_lookahead=60 / rc=crf / mbtree=0 / crf=15.3 / qcomp=0.72 / qpmin=0 / qpmax=69 / qpstep=4 / vbv_maxrate=38000 / vbv_bufsize=30000 / crf_max=0.0 / nal_hrd=none / filler=0 / ip_ratio=1.40 / pb_ratio=1.23 / aq=2:0.64 / zones=1810,2169,crf=12.5/3745,5096,crf=13/20391,24047,crf=12.5/43396,44529,crf=12.5/45473,46204,crf=12.5/54386,54992,crf=13/57870,60401,crf=13/65049,66050,crf=12.5/91975,94360,crf=13/116007,118067,crf=12.5
    Язык : English
    Default : Да
    Forced : Нет
    Аудио #1
    Идентификатор : 2
    Формат : AC-3
    Формат/Информация : Audio Coding 3
    Расширение режима : CM (complete main)
    Параметр Endianness формата : Big
    Идентификатор кодека : A_AC3
    Продолжительность : 1 ч. 37 м.
    Вид битрейта : Постоянный
    Битрейт : 640 Кбит/сек
    Каналы : 6 каналов
    Расположение каналов : Front: L C R, Side: L R, LFE
    Частота : 48,0 КГц
    Частота кадров : 31,250 кадров/сек (1536 spf)
    Метод сжатия : С потерями
    Размер потока : 445 Мбайт (11%)
    Заголовок : MVO / "Paradox" & "Recent Films"
    Язык : Russian
    Default : Да
    Forced : Нет
    Аудио #2
    Идентификатор : 3
    Формат : AC-3
    Формат/Информация : Audio Coding 3
    Расширение режима : CM (complete main)
    Параметр Endianness формата : Big
    Идентификатор кодека : A_AC3
    Продолжительность : 1 ч. 37 м.
    Вид битрейта : Постоянный
    Битрейт : 192 Кбит/сек
    Каналы : 2 канала
    Расположение каналов : Front: L R
    Частота : 48,0 КГц
    Частота кадров : 31,250 кадров/сек (1536 spf)
    Метод сжатия : С потерями
    Размер потока : 134 Мбайт (3%)
    Заголовок : DVO / Мтрск & StacyLagler
    Язык : Russian
    Default : Нет
    Forced : Нет
    Аудио #3
    Идентификатор : 4
    Формат : AC-3
    Формат/Информация : Audio Coding 3
    Расширение режима : CM (complete main)
    Параметр Endianness формата : Big
    Идентификатор кодека : A_AC3
    Продолжительность : 1 ч. 37 м.
    Вид битрейта : Постоянный
    Битрейт : 640 Кбит/сек
    Каналы : 6 каналов
    Расположение каналов : Front: L C R, Side: L R, LFE
    Частота : 48,0 КГц
    Частота кадров : 31,250 кадров/сек (1536 spf)
    Метод сжатия : С потерями
    Размер потока : 445 Мбайт (11%)
    Заголовок : Original
    Язык : English
    Default : Нет
    Forced : Нет
    Текст #1
    Идентификатор : 5
    Формат : UTF-8
    Идентификатор кодека : S_TEXT/UTF8
    Идентификатор кодека/Информация : UTF-8 Plain Text
    Продолжительность : 1 ч. 33 м.
    Битрейт : 82 бит/сек
    Count of elements : 1244
    Размер потока : 56,6 Кбайт (0%)
    Заголовок : Русский перевод - Сергей Гуреев
    Язык : Russian
    Default : Нет
    Forced : Нет
    Текст #2
    Идентификатор : 6
    Формат : UTF-8
    Идентификатор кодека : S_TEXT/UTF8
    Идентификатор кодека/Информация : UTF-8 Plain Text
    Продолжительность : 1 ч. 33 м.
    Битрейт : 52 бит/сек
    Count of elements : 999
    Размер потока : 35,7 Кбайт (0%)
    Заголовок : Original
    Язык : English
    Default : Нет
    Forced : Нет
    Текст #3
    Идентификатор : 7
    Формат : UTF-8
    Идентификатор кодека : S_TEXT/UTF8
    Идентификатор кодека/Информация : UTF-8 Plain Text
    Продолжительность : 1 ч. 36 м.
    Битрейт : 54 бит/сек
    Count of elements : 1135
    Размер потока : 38,8 Кбайт (0%)
    Заголовок : Original / SDH
    Язык : English
    Default : Нет
    Forced : Нет
    Меню
    00:00:00.000 : en:Chapter 01
    00:09:30.779 : en:Chapter 02
    00:18:37.116 : en:Chapter 03
    00:28:24.578 : en:Chapter 04
    00:36:12.587 : en:Chapter 05
    00:44:45.099 : en:Chapter 06
    00:54:10.122 : en:Chapter 07
    01:01:50.248 : en:Chapter 08
    01:10:32.019 : en:Chapter 09
    01:18:29.622 : en:Chapter 10
    01:27:38.837 : en:Chapter 11
    01:35:25.178 : en:Chapter 12

    Скриншоты

    Скачать .torrent

    Скачать торрент-файл бесплатно и на максимальной скорости!

    Как скачивать? · Что такое торрент? · Рейтинг и ограничения

    !ВНИМАНИЕ!
    Сайт не распространяет и не хранит электронные версии произведений, а занимается лишь лишь предоставлением доступа к создаваемому пользователями каталогу ссылок на торрент-файлы, которые содержат только списки хеш-сумм, убедительная просьба с жалобами обращаться напрямую к пользователю. Файлы для обмена на трекере предоставлены пользователями сайта, и администрация не несёт ответственности за их содержание. Просьба не заливать файлы, защищенные авторскими правами, а также файлы нелегального содержания!


    _________________
    [Профиль] [ЛС]
    Показать сообщения:    
    Ответить на тему

    Текущее время: Сегодня, в 04:10

    Часовой пояс: GMT + 2



    Вы не можете начинать темы
    Вы не можете отвечать на сообщения
    Вы не можете редактировать свои сообщения
    Вы не можете удалять свои сообщения
    Вы не можете голосовать в опросах
    Вы не можете прикреплять файлы к сообщениям
    Вы не можете скачивать файлы