Register  ·  Log in
Forgot password?

  • Эдди «Орел» / Eddie the Eagle (Декстер Флетчер / Dexter Fletcher) [2016, Великобритания, Драма, комедия, биография, спорт, WEB-DLRip] Dub (iTunes)

    Reply to topic
    Author Message


    Post 27-May-2016 16:19



    Эдди «Орел» / Eddie the Eagle-Год выхода: 2016
    Выпущено: Великобритания, США, Германия / Marv Films
    Жанр: драма, комедия, биография, спорт
    Продолжительность: 01:46:10
    Перевод: Профессиональный (полное дублирование)
    Субтитры: нет-Режиссер:
    Декстер Флетчер / Dexter Fletcher-В ролях:
    Тэрон Эджертон (Eddie Edwards), Хью Джекман (Bronson Peary), Кристофер Уокен (Warren Sharp), Джо Хартли (Janette), Том Костелло (Eddie (10 years old)), Кит Аллен (Terry), Дикон Толсон (UK Doctor), Джек Костелло (Eddie (15 years old)), Марк Бентон (Richmond the BOA Official), Тим МакИннерни (Dustin Target)-О фильме:
    Фильм повествует о трамплинисте Эдди, по прозвищу «Орел». Он прославился благодаря своим неудачам, ибо на всех соревнованиях он занимал последние места.-Релиз групп
    | | IMDB | КиноПоиск | Сэмпл |-Качество: WEB-DLRip [Eddie The Eagle 2016 1080p WEB-DL AAC2 0 H264-RARBG]
    Формат: AVI
    Видео: 720x304 (2.37:1), 23.976 fps, XviD build 67 ~1576 kbps avg, 0.30 bit/pixel
    Аудио: 48 kHz, AC3 Dolby Digital, 3/2 (L,C,R,l,r) + LFE ch, ~384 kbps - iTunes Russia-




    Complete name                            : D:\Eddy_Orel_2016_WEB-DLRip_iT_by_Dalemake.avi
    Format                                   : AVI
    Format/Info                              : Audio Video Interleave
    File size                                : 1.46 GiB
    Duration                                 : 1h 46mn
    Overall bit rate                         : 1 968 Kbps
    Writing application                      : VirtualDubMod | || (build 2550/release)
    Writing library                          : VirtualDubMod build 2550/release
    ID                                       : 0
    Format                                   : MPEG-4 Visual
    Format profile                           : Advanced Simple@L5
    Format settings, BVOP                    : 1
    Format settings, QPel                    : No
    Format settings, GMC                     : No warppoints
    Format settings, Matrix                  : Custom
    Codec ID                                 : XVID
    Codec ID/Hint                            : XviD
    Duration                                 : 1h 46mn
    Bit rate                                 : 1 576 Kbps
    Width                                    : 720 pixels
    Height                                   : 304 pixels
    Display aspect ratio                     : 2.35:1
    Frame rate                               : 23.976 (23976/1000) fps
    Color space                              : YUV
    Chroma subsampling                       : 4:2:0
    Bit depth                                : 8 bits
    Scan type                                : Progressive
    Compression mode                         : Lossy
    Bits/(Pixel*Frame)                       : 0.300
    Stream size                              : 1.17 GiB (80%)
    Writing library                          : XviD 67
    ID                                       : 1
    Format                                   : AC-3
    Format/Info                              : Audio Coding 3
    Mode extension                           : CM (complete main)
    Format settings, Endianness              : Big
    Codec ID                                 : 2000
    Duration                                 : 1h 45mn
    Bit rate mode                            : Constant
    Bit rate                                 : 384 Kbps
    Channel(s)                               : 6 channels
    Channel positions                        : Front: L C R, Side: L R, LFE
    Sampling rate                            : 48.0 KHz
    Frame rate                               : 31.250 fps (1536 spf)
    Compression mode                         : Lossy
    Stream size                              : 290 MiB (19%)
    Alignment                                : Split accross interleaves
    Interleave, duration                     : 42 ms (1.01 video frame)
    Interleave, preload duration             : 500 ms
    Download .torrent

    Download free and at maximum speed!

    How to Download? · What is a torrent? · Ratings and Limitations

    The site does not extend and does not store electronic(digital) versions of products, and only gives access to a reference catalogue created by users on torrent-files which contain only lists of the hash-sums, the earnest entreaty, with complaints(abuse) to access directly to the user. Files for an exchange on tracker are given by users of a site, and the administration does not bear the responsibility for their maintenance. The request to not fill in the files protected by copyrights, and also files of the illegal maintenance!

    [Profile] [PM]
    Display posts from previous:    
    Reply to topic

    The time now is: Today 23:08

    All times are GMT + 3 Hours

    You cannot post new topics in this forum
    You cannot reply to topics in this forum
    You cannot edit your posts in this forum
    You cannot delete your posts in this forum
    You cannot vote in polls in this forum
    You cannot attach files in this forum
    You cannot download files in this forum