BitTorrentTracker PerecTracker.org
BitTorrentTracker PerecTracker.org
    
Регистрация  ·  Вход
 
 · 
Забыли пароль?

  • Местный / The Homesman (Томми Ли Джонс / Tommy Lee Jones) [2014, США, Франция, Драма, вестерн, HDRip] DVO (Сладкая парочка)

    Ответить на тему
     
    Автор Сообщение

    Light

    Создавать темы 27-Май-2016 15:19

           

    [Цитировать]

    Местный / The Homesman
    Страна: США, Франция
    Жанр: Драма, вестерн
    Год выпуска: 2014
    Продолжительность: 02:02:32
    Перевод: Любительский (двухголосый закадровый) Сладкая парочка
    Cубтитры: нет
    Режиссер: Томми Ли Джонс / Tommy Lee Jones
    В ролях: Томми Ли Джонс, Хилари Суэнк, Грэйс Гаммер, Миранда Отто, Соня Рихтер, Давид Денсик, Джон Литгоу, Тим Блейк Нельсон, Джеймс Спэйдер, Уильям Фихтнер
    Описание: События драматического вестерна разворачиваются в 1855 году во времена освоения Дикого Запада. На эти чужеродные земли пришлым вход заказан, а своих слишком мало – ковбои, индейцы, гангстеры и просто изгои. Сюжет картины разворачивается вокруг главной героини по имени Мэри Би Кадди. Эта женщина отнюдь не из робкого десятка и если надо будет, то коня на скаку остановит и в горящую избу войдет. У нее совсем не простая жизнь, поэтому она привыкла стойко переносить неприятности и в одиночку справляться со всеми проблемами. Однажды героиня соглашается оказать помощь другу Джорджу Бриггсу, которому необходимо переправить в Айову трех психически нестабильных дам. Безусловно, за выполнение этого поручения, Джорджа и Мэри ждет награда. Вот только сам процесс может быть опасным и совсем не безоблачным, для такой работы нужны крепкие нервы и невероятное мужество.
    Доп. информация: Рейтинг на IMDb: 6.6 / Кинопоиск 6.2
    Сэмпл: http://multi-up.com/1103238
    Качество видео: HDRip
    Формат видео: AVI
    Видео: XviD 1.2.1, 720x304, (2,35:1), 24,000 fps, 1245 Кбит/с, 8 бит
    Аудио: Русский (AC-3, 6 ch (Front: L C R, Side: L R, LFE), 48,0 KHz, 448 Kbps)

    MediaInfo

    Общее
    Полное имя : F:\Видеофильмы\В и д е о\Местный (вестерн Томм Ли Джонс 2014г).avi
    Формат : AVI
    Формат/Информация : Audio Video Interleave
    Размер файла : 1,46 Гбайт
    Продолжительность : 2 ч. 2 м.
    Общий поток : 1702 Кбит/сек
    Программа кодирования : VirtualDubMod 1.5.10.2 (build 2540/release)
    Библиотека кодирования : VirtualDubMod build 2540/release
    Видео
    Идентификатор : 0
    Формат : MPEG-4 Visual
    Профиль формата : Advanced Simple@L5
    Параметр BVOP формата : 2
    Параметр QPel формата : Нет
    Параметр GMC формата : Без точки перехода
    Параметр матрицы формата : Default (MPEG)
    Идентификатор кодека : XVID
    Идентификатор кодека/Подсказка : XviD
    Продолжительность : 2 ч. 2 м.
    Битрейт : 1245 Кбит/сек
    Ширина : 720 пикселей
    Высота : 304 пикселя
    Соотношение сторон : 2,35:1
    Частота кадров : 24,000 кадра/сек
    Цветовое пространство : YUV
    Субдискретизация насыщенности : 4:2:0
    Битовая глубина : 8 бит
    Тип развёртки : Прогрессивная
    Метод сжатия : С потерями
    Бит/(Пиксели*Кадры) : 0.237
    Размер потока : 1,07 Гбайт (73%)
    Библиотека кодирования : XviD 1.2.1 (UTC 2008-12-04)
    Аудио
    Идентификатор : 1
    Формат : AC-3
    Формат/Информация : Audio Coding 3
    Расширение режима : CM (complete main)
    Параметр Endianness формата : Big
    Идентификатор кодека : 2000
    Продолжительность : 2 ч. 2 м.
    Вид битрейта : Постоянный
    Битрейт : 448 Кбит/сек
    Каналы : 6 каналов
    Расположение каналов : Front: L C R, Side: L R, LFE
    Частота : 48,0 КГц
    Частота кадров : 31,250 кадров/сек (1536 spf)
    Метод сжатия : С потерями
    Размер потока : 393 Мбайт (26%)
    Выравнивание : Разделение по промежуткам
    Продолжительность промежутка : 42 мс. (1,00 видеокадр)
    Время предзагрузки промежутка : 500 мс.

    Скриншот c названием фильма

    Скриншоты

    Скачать .torrent

    Скачать торрент-файл бесплатно и на максимальной скорости!

    Как скачивать? · Что такое торрент? · Рейтинг и ограничения

    !ВНИМАНИЕ!
    Сайт не распространяет и не хранит электронные версии произведений, а занимается лишь лишь предоставлением доступа к создаваемому пользователями каталогу ссылок на торрент-файлы, которые содержат только списки хеш-сумм, убедительная просьба с жалобами обращаться напрямую к пользователю. Файлы для обмена на трекере предоставлены пользователями сайта, и администрация не несёт ответственности за их содержание. Просьба не заливать файлы, защищенные авторскими правами, а также файлы нелегального содержания!


    _________________
    [Профиль] [ЛС]
    Показать сообщения:    
    Ответить на тему

    Текущее время: Сегодня, в 18:37

    Часовой пояс: GMT + 2



    Вы не можете начинать темы
    Вы не можете отвечать на сообщения
    Вы не можете редактировать свои сообщения
    Вы не можете удалять свои сообщения
    Вы не можете голосовать в опросах
    Вы не можете прикреплять файлы к сообщениям
    Вы не можете скачивать файлы