Register  ·  Log in
Forgot password?

  • Алиса в Зазеркалье / Alice Through the Looking Glass (2016) CAMRip | D

    Reply to topic
    Author Message


    Post 27-May-2016 07:48



    Алиса в Зазеркалье / Alice Through the Looking Glass
    Страна: США
    Производство: Legend3D, Roth Films, Tim Burton Productions, Walt Disney Pictures
    Год выпуска: 2016
    Жанр: фэнтези, приключения, семейный
    Продолжительность: 01:52:11
    Режиссер: Джеймс Бобин
    Авторы сценария: Линда Вулвертон, Льюис Кэрролл
    В ролях: Миа Васиковска, Джонни Депп, Хелена Бонем Картер, Энн Хэтэуэй, Саша Барон Коэн, Рис Иванс, Мэтт Лукас, Линдси Дункан
    Описание: На этот раз главной героине предстоит отправиться в путешествие во времени, полное неожиданностей и ярких открытий, чтобы спасти своего друга, Безумного Шляпника...

    Перевод: Профессиональный (полное дублирование)
    Субтитры: нет-Качество: CAMRip
    Формат: АVI
    Видео кодек: XviD
    Аудио кодек: АС3
    Видео: 720x384 (1.85:1), 30.000 fps, XviD ~1 574 kbps avg
    Аудио: 48.0 kHz, AC3 Dolby Digital, 2/0 (L,R) ch, ~192 kbps
    Дата премьеры (мир): 25 мая 2016
    Дата премьеры (РФ): 26 мая 2016, «WDSSPR»

    Media Info

    Format : AVI
    Format/Info : Audio Video Interleave
    File size : 16.9 MiB
    Movie name : Alisa.v.Zazerkalie.2015.D.CAMRip.1400MB
    Writing application : VirtualDubMod | (build 2550/release)
    Writing library : VirtualDubMod build 2550/release
    Copyright : MoreFilms
    ID : 0
    Format : MPEG-4 Visual
    Format profile : Advanced Simple@L5
    Format settings, BVOP : 2
    Format settings, QPel : No
    Format settings, GMC : No warppoints
    Format settings, Matrix : Custom
    Codec ID : XVID
    Codec ID/Hint : XviD
    Bit rate : 1 574 Kbps
    Width : 720 pixels
    Height : 384 pixels
    Display aspect ratio : 1.85:1
    Frame rate : 30.000 fps
    Color space : YUV
    Chroma subsampling : 4:2:0
    Bit depth : 8 bits
    Scan type : Progressive
    Compression mode : Lossy
    Bits/(Pixel*Frame) : 0.190
    Stream size : 14.9 MiB (88%)
    Writing library : XviD 1.2.1 (UTC 2008-12-04)
    ID : 1
    Format : AC-3
    Format/Info : Audio Coding 3
    Mode extension : CM (complete main)
    Format settings, Endianness : Big
    Codec ID : 2000
    Bit rate mode : Constant
    Bit rate : 192 Kbps
    Channel(s) : 2 channels
    Channel positions : Front: L R
    Sampling rate : 48.0 KHz
    Compression mode : Lossy
    Delay relative to video : 19ms
    Stream size : 1.82 MiB (11%)
    Alignment : Split accross interleaves
    Interleave, duration : 34 ms (1.01 video frame)
    Interleave, preload duration : 500 ms


    Download .torrent

    Download free and at maximum speed!

    How to Download? · What is a torrent? · Ratings and Limitations

    The site does not extend and does not store electronic(digital) versions of products, and only gives access to a reference catalogue created by users on torrent-files which contain only lists of the hash-sums, the earnest entreaty, with complaints(abuse) to access directly to the user. Files for an exchange on tracker are given by users of a site, and the administration does not bear the responsibility for their maintenance. The request to not fill in the files protected by copyrights, and also files of the illegal maintenance!

    [Profile] [PM]
    Display posts from previous:    
    Reply to topic

    The time now is: Today 06:01

    All times are GMT + 3 Hours

    You cannot post new topics in this forum
    You cannot reply to topics in this forum
    You cannot edit your posts in this forum
    You cannot delete your posts in this forum
    You cannot vote in polls in this forum
    You cannot attach files in this forum
    You cannot download files in this forum