BitTorrentTracker PerecTracker.org
BitTorrentTracker PerecTracker.org
    
Регистрация  ·  Вход
 
 · 
Забыли пароль?

  • Жизнь на двоих (Ольга Орехова) [2009, Украина, драма, детектив, HDTV 1080i]

    Ответить на тему
     
    Автор Сообщение

    Light

    Создавать темы 26-Май-2016 22:40

           

    [Цитировать]

    Жизнь на двоих--Страна: Украина
    Жанр: драма, детектив
    Год выпуска: 2009
    Производство: «Star Media»
    Продолжительность: 01:20:33
    Оригинальная аудиодорожка: русский
    Cубтитры: нет-Режиссер: Ольга Орехова-В ролях:
    Павел Трубинер, Анна Слынько, Олег Харитонов, Константин Костишин, Александр Швец-Описание:
    В лесополосе найдено тело молодой женщины. Его невозможно опознать: лицо и одна рука были обезображены кислотой. Рядом лежат два паспорта, но это не проясняет ситуацию…
    Три бывших одноклассника — следователь Михаил, бизнесмен Максим и банкир Вячеслав — близкие друзья. Вячеслав приглашает Михаила и Максима на свою свадьбу, где и представляет им молодую жену Юлю. Неожиданно Михаил узнает в ней девушку с фотографии в паспорте, найденном возле убитой. Юля признается, что у нее есть беспутная сестра-близнец Ульяна, которой она стыдится, и, скорее всего, погибла именно она. Но, сняв отпечатки пальцев с уцелевшей руки убитой, следствие обнаруживает, что жертва преступления — вовсе не Ульяна.
    Расследование не прекращается: ведь у многих героев этой истории совесть не чиста…-Возраст: 16+-Качество: HDTV (1080i)
    Формат: TS
    Видео кодек: AVC
    Аудио кодек: MPEG Audio

    Видео: AVC, 1920 х 1080 (16:9), 25,000 кадр/сек, 7 200 Кбит/сек, 0.139 bit/pixel
    Аудио: MPEG Audio 2, 48000 Hz, 192 Kbps, 2 канала
    -

    MediaInfo

    General
    ID : 1 (0x1)
    Complete name : D:\Раздачи\Жизнь на двоих HDTV (1080i)\Жизнь на двоих HDTV (1080i).ts
    Format : MPEG-TS
    File size : 4.43 GiB
    Duration : 1h 20mn
    Overall bit rate mode : Variable
    Overall bit rate : 7 911 Kbps
    Video
    ID : 256 (0x100)
    Menu ID : 1234 (0x4D2)
    Format : AVC
    Format/Info : Advanced Video Codec
    Format profile : High@L4.1
    Format settings, CABAC : Yes
    Format settings, ReFrames : 3 frames
    Codec ID : 27
    Duration : 1h 20mn
    Bit rate mode : Constant
    Bit rate : 7 200 Kbps
    Width : 1 920 pixels
    Height : 1 080 pixels
    Display aspect ratio : 16:9
    Frame rate : 25.000 fps
    Standard : PAL
    Color space : YUV
    Chroma subsampling : 4:2:0
    Bit depth : 8 bits
    Scan type : Progressive
    Bits/(Pixel*Frame) : 0.139
    Stream size : 3.99 GiB (90%)
    Color range : Limited
    Color primaries : BT.709
    Transfer characteristics : BT.709
    Matrix coefficients : BT.709
    Audio #1
    ID : 257 (0x101)
    Menu ID : 1234 (0x4D2)
    Format : MPEG Audio
    Format version : Version 1
    Format profile : Layer 2
    Codec ID : 3
    Duration : 1h 20mn
    Bit rate mode : Constant
    Bit rate : 192 Kbps
    Channel(s) : 2 channels
    Sampling rate : 48.0 KHz
    Compression mode : Lossy
    Stream size : 110 MiB (2%)
    Language : English
    Audio #2
    ID : 258 (0x102)
    Menu ID : 1234 (0x4D2)
    Format : MPEG Audio
    Format version : Version 1
    Format profile : Layer 2
    Codec ID : 3
    Duration : 1h 20mn
    Bit rate mode : Constant
    Bit rate : 192 Kbps
    Channel(s) : 2 channels
    Sampling rate : 48.0 KHz
    Compression mode : Lossy
    Stream size : 110 MiB (2%)
    Language : English

    Скриншоты

    -Раздаю до первых 5-ти скачавших, на раздачи не возвращаюсь...-
    Скачать .torrent

    Скачать торрент-файл бесплатно и на максимальной скорости!

    Как скачивать? · Что такое торрент? · Рейтинг и ограничения

    !ВНИМАНИЕ!
    Сайт не распространяет и не хранит электронные версии произведений, а занимается лишь лишь предоставлением доступа к создаваемому пользователями каталогу ссылок на торрент-файлы, которые содержат только списки хеш-сумм, убедительная просьба с жалобами обращаться напрямую к пользователю. Файлы для обмена на трекере предоставлены пользователями сайта, и администрация не несёт ответственности за их содержание. Просьба не заливать файлы, защищенные авторскими правами, а также файлы нелегального содержания!


    _________________
    [Профиль] [ЛС]
    Показать сообщения:    
    Ответить на тему

    Текущее время: Сегодня, в 19:04

    Часовой пояс: GMT + 2



    Вы не можете начинать темы
    Вы не можете отвечать на сообщения
    Вы не можете редактировать свои сообщения
    Вы не можете удалять свои сообщения
    Вы не можете голосовать в опросах
    Вы не можете прикреплять файлы к сообщениям
    Вы не можете скачивать файлы