BitTorrentTracker PerecTracker.org
BitTorrentTracker PerecTracker.org
    
Регистрация  ·  Вход
 
 · 
Забыли пароль?

  • За пригоршню динамита / Giu la testa / A Fistful of Dynamite (Серджио Леоне / Sergio Leone) [1971, Италия, Вестерн, приключения, BDRip] MVO (ОРТ (отдельно)) + DVO (П.Гланц и И.Королева) + AVO (Мудров (отдельно))

    Ответить на тему
     
    Автор Сообщение

    Columb

    Создавать темы 18-Фев-2014 21:02

           

    [Цитировать]

    За пригоршню динамита / Giu la testa / A Fistful of Dynamite
    Страна: Италия
    Жанр: Вестерн, приключения
    Год выпуска: 1971
    Продолжительность: 02:37:17
    Перевод: Профессиональный (многоголосый закадровый) ОРТ
    Перевод 2: Профессиональный (двухголосый закадровый) П.Гланц и И.Королева (отдельно)
    Перевод 3: Авторский (одноголосый закадровый) Мудров (отдельно)
    Cубтитры: нет
    Режиссер: Серджио Леоне / Sergio Leone
    В ролях: Джеймс Коберн, Род Стайгер, Мария Монти, Рик Батталья, Франко Грациози, Ромоло Валли, Антуан Сент-Джон, Вивьенн Чэндлер, Дэвид Уорбек, Джулио Баттиферри, Польдо Бенданди, Омар Бонаро, Рой Босьер, Джон Фредерик, Амато Гарбини, Майкл Харви, Фурио Меникони, Бьяджо Ла Рокка, Наццарено Натале, Винченцо Норвезе, Стефано Оппедизано
    Описание: На бескрайних мексиканских просторах встречаются два «солдата удачи» - развеселый бандит Хуан Миранда, грабящий со своими детишками почтовые дилижансы, и ирландский террорист и бомбометатель Мэллори, мчащийся на своем мотоцикле навстречу опасности и оставляя позади себя воронки от разрывов динамитных шашек. Миранда мечтает использовать «взрывоопасный» талант Мэллори - для ограбления банка. Но вместо банковских сейфов он освобождает политических заложников и становится героем революции. Очень скоро друзьям предстоит забыть радости вольной жизни на полях сражений за свободу мексиканского народа...
    Качество видео: BDRip [A.Fistful.Of.Dynamite.1971.BDRemux.1080p.HDTracker.{ITA Transfer]]
    Формат видео: AVI
    Видео: 720x304 (2.37:1), 24 fps, XviD build 50 ~1098 kbps avg, 0.21 bit/pixel
    Аудио: 48 kHz, AC3 Dolby Digital, 2/0 (L,R) ch, ~192 kbps MVO
    Аудио 2: 48 kHz, АС3, 6 ch, 384 kbps DVO
    Аудио 3: 48 kHz, AC3 Dolby Digital, 2/0 (L,R) ch, ~192 kbps AVO

    MediaInfo

    За пригоршню динамита - A Fistful of Dynamite\За пригоршню динамита - A Fistful of Dynamite.avi
    Format : AVI
    Format/Info : Audio Video Interleave
    File size : 1.43 GiB
    Duration : 2h 37mn
    Overall bit rate : 1 300 Kbps
    Movie name : За пригоршню динамита - A Fistful of Dynamite
    Director : Rip by Edich2
    Writing application : VirtualDubMod 1.5.10.2 (build 2540/release)
    Comment : RuTracker.org
    Video
    ID : 0
    Format : MPEG-4 Visual
    Format profile : Advanced Simple@L5
    Format settings, BVOP : 2
    Format settings, QPel : No
    Format settings, GMC : No warppoints
    Format settings, Matrix : Custom
    Codec ID : XVID
    Codec ID/Hint : XviD
    Duration : 2h 37mn
    Bit rate : 1 099 Kbps
    Width : 720 pixels
    Height : 304 pixels
    Display aspect ratio : 2.35:1
    Frame rate : 24.000 fps
    Color space : YUV
    Chroma subsampling : 4:2:0
    Bit depth : 8 bits
    Scan type : Progressive
    Compression mode : Lossy
    Bits/(Pixel*Frame) : 0.209
    Stream size : 1.21 GiB (85%)
    Writing library : XviD 1.2.1 (UTC 2008-12-04)
    Audio
    ID : 1
    Format : AC-3
    Format/Info : Audio Coding 3
    Mode extension : CM (complete main)
    Format settings, Endianness : Big
    Codec ID : 2000
    Duration : 2h 37mn
    Bit rate mode : Constant
    Bit rate : 192 Kbps
    Channel count : 2 channels
    Channel positions : Front: L R
    Sampling rate : 48.0 KHz
    Bit depth : 16 bits
    Compression mode : Lossy
    Stream size : 216 MiB (15%)
    Alignment : Split accross interleaves
    Interleave, duration : 42 ms (1.00 video frame)
    Interleave, preload duration : 500 ms

    Скриншоты


    Скачать .torrent

    Скачать торрент-файл бесплатно и на максимальной скорости!

    Как скачивать? · Что такое торрент? · Рейтинг и ограничения

    !ВНИМАНИЕ!
    Сайт не распространяет и не хранит электронные версии произведений, а занимается лишь лишь предоставлением доступа к создаваемому пользователями каталогу ссылок на торрент-файлы, которые содержат только списки хеш-сумм, убедительная просьба с жалобами обращаться напрямую к пользователю. Файлы для обмена на трекере предоставлены пользователями сайта, и администрация не несёт ответственности за их содержание. Просьба не заливать файлы, защищенные авторскими правами, а также файлы нелегального содержания!

    [Профиль] [ЛС]
    Показать сообщения:    
    Ответить на тему

    Текущее время: Сегодня, в 16:31

    Часовой пояс: GMT + 2



    Вы не можете начинать темы
    Вы не можете отвечать на сообщения
    Вы не можете редактировать свои сообщения
    Вы не можете удалять свои сообщения
    Вы не можете голосовать в опросах
    Вы не можете прикреплять файлы к сообщениям
    Вы не можете скачивать файлы