BitTorrentTracker PerecTracker.org
BitTorrentTracker PerecTracker.org
    
Регистрация  ·  Вход
 
 · 
Забыли пароль?

  • Приезжие / The Out-of-Towners (Сэм Уайзман / Sam Weisman) [1999, США, комедия, WEB-DL 720p] 2x MVO + DVO + AVO + Sub Rus, Eng + Original Eng

    Ответить на тему
     
    Автор Сообщение

    Light

    Создавать темы 26-Май-2016 18:29

           

    [Цитировать]

    Приезжие / The Out-of-Towners
    -Страна: США
    Жанр: комедия
    Год выпуска: 1999
    Продолжительность: 01:30:19-Перевод 1: Профессиональный (двухголосый закадровый)
    Перевод 2: Профессиональный (многоголосый, закадровый)
    Перевод 3: Профессиональный (многоголосый, закадровый)
    Перевод 4: Авторский (одноголосый закадровый) Живов
    Cубтитры: русские, английские
    Оригинальная аудиодорожка: английский-Режиссер: Сэм Уайзман / Sam Weisman-В ролях: Стив Мартин, Голди Хоун, Джон Клиз, Марк МакКинни, Оливер Хадсон, Валери Перри, Стив Миттлман-Описание:
    Немолодая супружеская чета — Генри и Ненси Кларк отправляется в путешествие из маленького городка родного штата Огайо в Нью — Йорк. Здесь, в огромном и опасном городе, Кларков поджидают невероятные приключения. Их багаж пропал, деньги похищены самым наглым образом, а высокомерный менеджер гостиницы отказал супругам в ночлеге.
    Оказавшись в безвыходном положении, Генри и Нэнси попадают в массу немыслимых и презабавных ситуаций. Но в тот момент, когда фортуна, казалось бы, совсем отвернулась от несчастных приезжих, они совершенно неожиданно друг для друга обретают утраченное счастье.-Сэмпл: Скачать-Тип релиза: WEB-DL 720p
    Контейнер: MKV-Видео: 1 280x716 (16:9); 4 071 Kbps; 23.976 fps; 0.185 bpp
    Аудио 1: Russian; AC3; 48.0 KHz; 2ch; 192 Kbps DVO
    Аудио 2: Russian; AC3; 48.0 KHz; 6ch; 448 Kbps MVO
    Аудио 3: Russian; AC3; 48.0 KHz; 6ch; 384 Kbps MVO
    Аудио 4: Russian; AC3; 48.0 KHz; 6ch; 384 Kbps AVO
    Аудио 5: English; AC3; 48.0 KHz; 6ch; 384 Kbps

    MediaInfo

    Format : Matroska
    Format version : Version 4 / Version 2
    File size : 3.77 GiB
    Duration : 1h 30mn
    Overall bit rate : 5 982 Kbps
    Encoded date : UTC 2016-05-23 10:28:07
    Writing application : mkvmerge v8.3.0 ('Over the Horizon') 64bit
    Writing library : libebml v1.3.1 + libmatroska v1.4.2
    Attachements : poster.jpg
    DURATION : 01:30:18.048000000
    NUMBER_OF_FRAMES : 169314
    NUMBER_OF_BYTES : 260066304
    _STATISTICS_WRITING_APP : mkvmerge v8.3.0 ('Over the Horizon') 64bit
    _STATISTICS_WRITING_DATE_UT : 2016-05-23 10:28:07
    _STATISTICS_TAGS : BPS DURATION NUMBER_OF_FRAMES NUMBER_OF_BYTES
    Video
    ID : 1
    Format : AVC
    Format/Info : Advanced Video Codec
    Format profile : High@L3.1
    Format settings, CABAC : No
    Format settings, ReFrames : 2 frames
    Codec ID : V_MPEG4/ISO/AVC
    Duration : 1h 30mn
    Bit rate : 4 071 Kbps
    Width : 1 280 pixels
    Height : 716 pixels
    Display aspect ratio : 16:9
    Frame rate mode : Constant
    Frame rate : 23.976 fps
    Color space : YUV
    Chroma subsampling : 4:2:0
    Bit depth : 8 bits
    Scan type : Progressive
    Bits/(Pixel*Frame) : 0.185
    Stream size : 2.57 GiB (68%)
    Language : English
    Default : Yes
    Forced : No
    Color range : Limited
    Color primaries : BT.709
    Transfer characteristics : BT.709
    Matrix coefficients : BT.709
    Audio #1
    ID : 2
    Format : AC-3
    Format/Info : Audio Coding 3
    Mode extension : CM (complete main)
    Format settings, Endianness : Big
    Codec ID : A_AC3
    Duration : 1h 30mn
    Bit rate mode : Constant
    Bit rate : 192 Kbps
    Channel(s) : 1 channel
    Channel positions : Front: C
    Sampling rate : 48.0 KHz
    Compression mode : Lossy
    Stream size : 124 MiB (3%)
    Title : DVO
    Language : Russian
    Default : Yes
    Forced : No
    Audio #2
    ID : 3
    Format : AC-3
    Format/Info : Audio Coding 3
    Mode extension : CM (complete main)
    Format settings, Endianness : Big
    Codec ID : A_AC3
    Duration : 1h 30mn
    Bit rate mode : Constant
    Bit rate : 448 Kbps
    Channel(s) : 6 channels
    Channel positions : Front: L C R, Side: L R, LFE
    Sampling rate : 48.0 KHz
    Compression mode : Lossy
    Stream size : 289 MiB (7%)
    Title : MVO 1
    Language : Russian
    Default : No
    Forced : No
    Audio #3
    ID : 4
    Format : AC-3
    Format/Info : Audio Coding 3
    Mode extension : CM (complete main)
    Format settings, Endianness : Big
    Codec ID : A_AC3
    Duration : 1h 30mn
    Bit rate mode : Constant
    Bit rate : 384 Kbps
    Channel(s) : 6 channels
    Channel positions : Front: L C R, Side: L R, LFE
    Sampling rate : 48.0 KHz
    Compression mode : Lossy
    Stream size : 248 MiB (6%)
    Title : MVO 2
    Language : Russian
    Default : No
    Forced : No
    Audio #4
    ID : 5
    Format : AC-3
    Format/Info : Audio Coding 3
    Mode extension : CM (complete main)
    Format settings, Endianness : Big
    Codec ID : A_AC3
    Duration : 1h 30mn
    Bit rate mode : Constant
    Bit rate : 384 Kbps
    Channel(s) : 6 channels
    Channel positions : Front: L C R, Side: L R, LFE
    Sampling rate : 48.0 KHz
    Compression mode : Lossy
    Stream size : 248 MiB (6%)
    Language : English
    Default : No
    Forced : No
    Audio #5
    ID : 6
    Format : AC-3
    Format/Info : Audio Coding 3
    Mode extension : CM (complete main)
    Format settings, Endianness : Big
    Codec ID : A_AC3
    Duration : 1h 30mn
    Bit rate mode : Constant
    Bit rate : 384 Kbps
    Channel(s) : 6 channels
    Channel positions : Front: L C R, Side: L R, LFE
    Sampling rate : 48.0 KHz
    Compression mode : Lossy
    Stream size : 248 MiB (6%)
    Title : AVO Живов
    Language : Russian
    Default : No
    Forced : No
    Text #1
    ID : 7
    Format : UTF-8
    Codec ID : S_TEXT/UTF8
    Codec ID/Info : UTF-8 Plain Text
    Language : English
    Default : No
    Forced : No
    Text #2
    ID : 8
    Format : UTF-8
    Codec ID : S_TEXT/UTF8
    Codec ID/Info : UTF-8 Plain Text
    Language : Russian
    Default : No
    Forced : No

    Скриншоты

    Скачать .torrent

    Скачать торрент-файл бесплатно и на максимальной скорости!

    Как скачивать? · Что такое торрент? · Рейтинг и ограничения

    !ВНИМАНИЕ!
    Сайт не распространяет и не хранит электронные версии произведений, а занимается лишь лишь предоставлением доступа к создаваемому пользователями каталогу ссылок на торрент-файлы, которые содержат только списки хеш-сумм, убедительная просьба с жалобами обращаться напрямую к пользователю. Файлы для обмена на трекере предоставлены пользователями сайта, и администрация не несёт ответственности за их содержание. Просьба не заливать файлы, защищенные авторскими правами, а также файлы нелегального содержания!


    _________________
    [Профиль] [ЛС]
    Показать сообщения:    
    Ответить на тему

    Текущее время: Сегодня, в 04:17

    Часовой пояс: GMT + 2



    Вы не можете начинать темы
    Вы не можете отвечать на сообщения
    Вы не можете редактировать свои сообщения
    Вы не можете удалять свои сообщения
    Вы не можете голосовать в опросах
    Вы не можете прикреплять файлы к сообщениям
    Вы не можете скачивать файлы