BitTorrentTracker PerecTracker.org
BitTorrentTracker PerecTracker.org
    
Регистрация  ·  Вход
 
 · 
Забыли пароль?

  • Человек тьмы II: Возвращение Дюрана / Darkman II: The Return of Durant (Брэдфорд Мэй / Bradford May) [1995, США, фантастика, боевик, BDRemux 1080p] MVO + MVO (Премьер) + 2x AVO (Гаврилов, Королев) + Sub Eng + Original Eng

    Ответить на тему
     
    Автор Сообщение

    Light

    Создавать темы 26-Май-2016 18:29

           

    [Цитировать]

    -Человек Тьмы 2: Возвращение Дюрана / Darkman II: The Return of Durant-Страна: США
    Жанр: Фантастика, Боевик
    Год выпуска: 1995
    Продолжительность: 01:32:37-Перевод: Профессиональный (многоголосый закадровый)
    Перевод 2: Профессиональный (многоголосый закадровый) Премьер
    Перевод 3: Авторский (одноголосый закадровый) Андрей Гаврилов
    Перевод 4: Авторский (одноголосый закадровый) Владимир Королев
    Cубтитры: английские SDH
    Оригинальная аудиодорожка: английский-Режиссер: Брэдфорд Мэй / Bradford May
    В ролях: Ларри Дрэйк, Арнольд Вослу, Ким Делани, Рене О’Коннор, Лоуренс Дэйн, Джесси Коллинз, Дэвид Ферри, Род Уилсон, Джек Лангедийк, Стэн Ейрик-Описание: С помощью своего друга-ученого, обезображенный доктор Уэстлэйк нашел способ, благодаря которому он мог бы вернуть свой первозданный облик. Но именно в этот момент безжалостный рок заставляет Пэйтона снова пережить трагедию, которая постигла его в первой части картины. Более того, оказывается, что покойный садист Дюран жив, здоров, и снова полон преступных планов. Доктор Уэстлэйк решает окончательно и бесповоротно разделаться с жутким Дюраном и его страшной компанией. Начинается кровавая схватка со злом, в которой Человек Тьмы пойдет до самого конца.-Сэмпл-Тип релиза: BDRemux 1080p
    Контейнер: MKV
    Видео: MPEG-4 AVC Video / 21997 kbps / 1080p / 23,976 fps / 16:9 / High Profile 4.1
    Аудио: Russian / Dolby Digital Audio / 2.0 / 48 kHz / 192 kbps |Многоголосый закадровый|
    Аудио 2: Russian / Dolby Digital Audio / 2.0 / 48 kHz / 192 kbps |Многоголосый закадровый, Премьер|
    Аудио 3: Russian / Dolby Digital Audio / 2.0 / 48 kHz / 192 kbps |Одноголосый закадровый, Андрей Гаврилов|
    Аудио 4: Russian / DTS-HD Master Audio / 2.0 / 48 kHz / 1741 kbps / 16-bit (DTS Core: 2.0 / 48 kHz / 1509 kbps / 16-bit) |Одноголосый закадровый, Владимир Королев|
    Аудио 5: English / DTS-HD Master Audio / 2.0 / 48 kHz / 1738 kbps / 24-bit (DTS Core: 2.0 / 48 kHz / 1509 kbps / 24-bit)
    Аудио 6: Ukrainian / Dolby Digital Audio / 2.0 / 48 kHz / 192 kbps |Многоголосый закадровый, ICTV|
    Формат субтитров: softsub (SRT)

    MI

    GeneralUnique ID : 189601830963131235807967558693424563036 (0x8EA3FC00150A813AA0F3B3F50105835C)Complete name : S:\На хранении\Человек Тьмы 2. Возвращение Дюрана (1995. Darkman II. The Return of Durant).mkvFormat : MatroskaFormat version : Version 4 / Version 2File size : 17.0 GiBDuration : 1h 32mnOverall bit rate mode : VariableOverall bit rate : 26.2 MbpsMovie name : Release for RuTracker & HDClubEncoded date : UTC 2016-05-23 23:59:09Writing application : mkvmerge v9.0.1 ('Obstacles') 64bitWriting library : libebml v1.3.3 + libmatroska v1.4.4Cover : YesAttachments : cover.jpg
    VideoID : 1Format : AVCFormat/Info : Advanced Video CodecFormat profile : High@L4.1Format settings, CABAC : YesFormat settings, ReFrames : 3 framesCodec ID : V_MPEG4/ISO/AVCDuration : 1h 32mnBit rate mode : VariableBit rate : 22.0 MbpsMaximum bit rate : 30.0 MbpsWidth : 1 920 pixelsHeight : 1 080 pixelsDisplay aspect ratio : 16:9Frame rate mode : ConstantFrame rate : 23.976 (24000/1001) fpsStandard : NTSCColor space : YUVChroma subsampling : 4:2:0Bit depth : 8 bitsScan type : ProgressiveBits/(Pixel*Frame) : 0.442Stream size : 14.2 GiB (84%)Title : Darkman II The Return of Durant 1995 1080p NOR Blu-ray AVC DTS-HD MA 2.0-HDMikeLanguage : EnglishDefault : YesForced : NoColor range : LimitedColor primaries : BT.709Transfer characteristics : BT.709Matrix coefficients : BT.709
    Audio #1ID : 2Format : AC-3Format/Info : Audio Coding 3Mode extension : CM (complete main)Format settings, Endianness : BigCodec ID : A_AC3Duration : 1h 32mnBit rate mode : ConstantBit rate : 192 KbpsChannel(s) : 2 channelsChannel positions : Front: L RSampling rate : 48.0 KHzFrame rate : 31.250 fps (1536 spf)Compression mode : LossyStream size : 127 MiB (1%)Title : MVOLanguage : RussianDefault : YesForced : No
    Audio #2ID : 3Format : AC-3Format/Info : Audio Coding 3Mode extension : CM (complete main)Format settings, Endianness : BigCodec ID : A_AC3Duration : 1h 32mnBit rate mode : ConstantBit rate : 192 KbpsChannel(s) : 2 channelsChannel positions : Front: L RSampling rate : 48.0 KHzFrame rate : 31.250 fps (1536 spf)Compression mode : LossyStream size : 127 MiB (1%)Title : MVO [Премьер]Language : RussianDefault : NoForced : No
    Audio #3ID : 4Format : AC-3Format/Info : Audio Coding 3Mode extension : CM (complete main)Format settings, Endianness : BigCodec ID : A_AC3Duration : 1h 32mnBit rate mode : ConstantBit rate : 192 KbpsChannel(s) : 2 channelsChannel positions : Front: L RSampling rate : 48.0 KHzFrame rate : 31.250 fps (1536 spf)Compression mode : LossyStream size : 127 MiB (1%)Title : Андрей ГавриловLanguage : RussianDefault : NoForced : No
    Audio #4ID : 5Format : DTSFormat/Info : Digital Theater SystemsFormat profile : MA / CoreMode : 16Format settings, Endianness : BigCodec ID : A_DTSDuration : 1h 32mnBit rate mode : Variable / ConstantBit rate : 1 741 Kbps / 1 509 KbpsChannel(s) : 2 channelsChannel positions : Front: L RSampling rate : 48.0 KHzFrame rate : 93.750 fps (512 spf)Bit depth : 16 bitsCompression mode : Lossless / LossyStream size : 1.13 GiB (7%)Title : Владимир КоролевLanguage : RussianDefault : NoForced : No
    Audio #5ID : 6Format : DTSFormat/Info : Digital Theater SystemsFormat profile : MA / CoreMode : 16Format settings, Endianness : BigCodec ID : A_DTSDuration : 1h 32mnBit rate mode : Variable / ConstantBit rate : 1 738 Kbps / 1 509 KbpsChannel(s) : 2 channelsChannel positions : Front: L RSampling rate : 48.0 KHzFrame rate : 93.750 fps (512 spf)Bit depth : 24 bitsCompression mode : Lossless / LossyStream size : 1.12 GiB (7%)Language : EnglishDefault : NoForced : No
    Audio #6ID : 7Format : AC-3Format/Info : Audio Coding 3Mode extension : CM (complete main)Format settings, Endianness : BigCodec ID : A_AC3Duration : 1h 32mnBit rate mode : ConstantBit rate : 192 KbpsChannel(s) : 2 channelsChannel positions : Front: L RSampling rate : 48.0 KHzFrame rate : 31.250 fps (1536 spf)Compression mode : LossyStream size : 127 MiB (1%)Title : MVO [ICTV]Language : UkrainianDefault : NoForced : No
    TextID : 8Format : UTF-8Codec ID : S_TEXT/UTF8Codec ID/Info : UTF-8 Plain TextDuration : 1h 29mnBit rate : 64 bpsCount of elements : 1110Stream size : 42.3 KiB (0%)Title : SDHLanguage : EnglishDefault : NoForced : No
    Menu00:00:00.000 : en:00:00:00.00000:09:45.960 : en:00:09:45.96000:20:18.008 : en:00:20:18.00800:30:21.987 : en:00:30:21.98700:39:41.963 : en:00:39:41.96300:50:45.000 : en:00:50:45.00000:59:15.927 : en:00:59:15.92701:10:47.994 : en:01:10:47.99401:20:00.921 : en:01:20:00.92101:29:33.910 : en:01:29:33.910
    Скриншоты

    Зеркало


    Цитата:
    Цитата:

    • Релиз Spiellberg и
    • eac3to говорит, что оригинал 16-бит, а не 24. Так что Королев собран с голоса в 16 бит.
    • Сохранены оригинальные главы как на Blu-ray.
    Скачать .torrent

    Скачать торрент-файл бесплатно и на максимальной скорости!

    Как скачивать? · Что такое торрент? · Рейтинг и ограничения

    !ВНИМАНИЕ!
    Сайт не распространяет и не хранит электронные версии произведений, а занимается лишь лишь предоставлением доступа к создаваемому пользователями каталогу ссылок на торрент-файлы, которые содержат только списки хеш-сумм, убедительная просьба с жалобами обращаться напрямую к пользователю. Файлы для обмена на трекере предоставлены пользователями сайта, и администрация не несёт ответственности за их содержание. Просьба не заливать файлы, защищенные авторскими правами, а также файлы нелегального содержания!


    _________________
    [Профиль] [ЛС]
    Показать сообщения:    
    Ответить на тему

    Текущее время: Сегодня, в 22:19

    Часовой пояс: GMT + 2



    Вы не можете начинать темы
    Вы не можете отвечать на сообщения
    Вы не можете редактировать свои сообщения
    Вы не можете удалять свои сообщения
    Вы не можете голосовать в опросах
    Вы не можете прикреплять файлы к сообщениям
    Вы не можете скачивать файлы