BitTorrentTracker PerecTracker.org
BitTorrentTracker PerecTracker.org
    
Регистрация  ·  Вход
 
 · 
Забыли пароль?

  • Могучие утята 2 / Могучие утки 2 / D2: The Mighty Ducks (Сэм Уайзман / Sam Weisman) [1994, США, комендия, спорт, семейный, драма, WEB-DL 1080p] 2х MVO (ТНТ, ТВ3) + DVO (Видеосервис) + Sub Eng + Original Eng

    Ответить на тему
     
    Автор Сообщение

    Light

    Создавать темы 26-Май-2016 18:29

           

    [Цитировать]

    Могучие утята 2 / Могучие утки 2 / D2: The Mighty Ducks
    Страна: США
    Студия: Walt Disney Pictures
    Жанр: комендия, спорт, семейный, драма
    Год выпуска: 1994
    Продолжительность: 01:46:39
    Перевод 1: Профессиональный (многоголосый закадровый) тнт
    Перевод 2: Профессиональный (двухголосый закадровый) видеосервис
    Перевод 3: Профессиональный (многоголосый закадровый) тв3
    Cубтитры: английские
    Оригинальная аудиодорожка: английский
    Режиссер: Сэм Уайзман / Sam Weisman
    В ролях: Эмилио Эстевес, Кэтрин Эрбе, Майкл Такер, Ян Рубес, Карстен Норгаард, Джошуа Джексон, Элден Хенсон, Шон Уайсс, Мэтт Доэрти, Брэндон Квинтин Адамс, Гэретт Рэтлиф Хенсон, Маргерит Моро, Винсент Ларуссо, Коломба Якобсен-Дерстин, Аарон Лор, Тай О’Нил, Кинан Томпсон
    Описание: Во второй части фильма «Могучие утята» становятся птицами большого полета. Теперь бывшие неудачники - национальная сборная, которая отправляется на Игры доброй Воли в Лос - Анджелес. Гордон Бомбей приглашен тренером в новую команду, где он снова встречает своих старых друзей.
    Вместе они прошли огонь и воду. Но в солнечной Калифорнии их ждут еще и медные трубы: юным чемпионам так трудно удержаться от соблазнов беззаботной жизни звезд. Между тем, «Могучим утятам» предстоит ледовое побоище с непобедимой сборной Исландии. На подопечных Гордона смотрит весь мир. Им нельзя проиграть!
    Сэмпл: http://multi-up.com/1102956
    Тип релиза: WEB-DL 1080p
    Контейнер: MKV
    Видео: MPEG4 AVC Video, H264, 16:9, 1916x1076, 23.976 fps, 5 093 Kbps
    Аудио №1: Rus; AC3 2.0; 192 Kbps; 48 kHz; тнт
    Аудио №2: Rus; AC3 2.0; 192 Kbps; 48 kHz; видеосервис
    Аудио №3: Rus; AC3 2.0; 192 Kbps; 48 kHz; тв3
    Аудио №4: Eng; AC3 5.1; 384 kbps; 48.0 KHz
    Субтитры: Eng; SRT
    Навигация по главам: нет

    Доп. информация

    дороги тнт и тв3 отсюда
    за видеосервис спасибо [url=profile.php?mode=viewprofile&u=20564]Fikaloid[/url]

    MediaInfo

    Complete name : E:\1994.D2.The.Mighty.Ducks.1080p.WEB-DL.H.264.mkv
    Format : Matroska
    Format version : Version 4 / Version 2
    File size : 4.60 GiB
    Duration : 1h 46mn
    Overall bit rate : 6 176 Kbps
    Encoded date : UTC 2016-05-25 03:38:00
    Writing application : mkvmerge v8.2.0 ('World of Adventure') 64bit
    Writing library : libebml v1.3.1 + libmatroska v1.4.2
    Attachements : poster
    DURATION : 01:46:39.360000000
    NUMBER_OF_FRAMES : 199980
    NUMBER_OF_BYTES : 153584640
    _STATISTICS_WRITING_APP : mkvmerge v8.2.0 ('World of Adventure') 64bit
    _STATISTICS_WRITING_DATE_UT : 2016-05-25 03:38:00
    _STATISTICS_TAGS : BPS DURATION NUMBER_OF_FRAMES NUMBER_OF_BYTES
    Video
    ID : 1
    Format : AVC
    Format/Info : Advanced Video Codec
    Format profile : High@L4
    Format settings, CABAC : Yes
    Format settings, ReFrames : 4 frames
    Codec ID : V_MPEG4/ISO/AVC
    Duration : 1h 46mn
    Bit rate : 5 093 Kbps
    Width : 1 916 pixels
    Height : 1 076 pixels
    Display aspect ratio : 16:9
    Frame rate mode : Constant
    Frame rate : 23.976 fps
    Color space : YUV
    Chroma subsampling : 4:2:0
    Bit depth : 8 bits
    Scan type : Progressive
    Bits/(Pixel*Frame) : 0.103
    Stream size : 3.79 GiB (82%)
    Language : English
    Default : Yes
    Forced : No
    Color range : Limited
    Color primaries : BT.709
    Transfer characteristics : BT.709
    Matrix coefficients : BT.709
    Audio #1
    ID : 2
    Format : AC-3
    Format/Info : Audio Coding 3
    Format profile : Dolby Digital
    Mode extension : CM (complete main)
    Format settings, Endianness : Big
    Codec ID : A_AC3
    Duration : 1h 46mn
    Bit rate mode : Constant
    Bit rate : 192 Kbps
    Channel(s) : 2 channels
    Channel positions : Front: L R
    Sampling rate : 48.0 KHz
    Compression mode : Lossy
    Stream size : 146 MiB (3%)
    Title : тнт
    Language : Russian
    Default : Yes
    Forced : No
    Audio #2
    ID : 3
    Format : AC-3
    Format/Info : Audio Coding 3
    Format profile : Dolby Digital
    Mode extension : CM (complete main)
    Format settings, Endianness : Big
    Codec ID : A_AC3
    Duration : 1h 46mn
    Bit rate mode : Constant
    Bit rate : 192 Kbps
    Channel(s) : 2 channels
    Channel positions : Front: L R
    Sampling rate : 48.0 KHz
    Compression mode : Lossy
    Stream size : 146 MiB (3%)
    Title : видеосервис
    Language : Russian
    Default : No
    Forced : No
    Audio #3
    ID : 4
    Format : AC-3
    Format/Info : Audio Coding 3
    Format profile : Dolby Digital
    Mode extension : CM (complete main)
    Format settings, Endianness : Big
    Codec ID : A_AC3
    Duration : 1h 46mn
    Bit rate mode : Constant
    Bit rate : 192 Kbps
    Channel(s) : 2 channels
    Channel positions : Front: L R
    Sampling rate : 48.0 KHz
    Compression mode : Lossy
    Stream size : 146 MiB (3%)
    Title : тв3
    Language : Russian
    Default : No
    Forced : No
    Audio #4
    ID : 5
    Format : AC-3
    Format/Info : Audio Coding 3
    Mode extension : CM (complete main)
    Format settings, Endianness : Big
    Codec ID : A_AC3
    Duration : 1h 46mn
    Bit rate mode : Constant
    Bit rate : 384 Kbps
    Channel(s) : 6 channels
    Channel positions : Front: L C R, Side: L R, LFE
    Sampling rate : 48.0 KHz
    Compression mode : Lossy
    Stream size : 293 MiB (6%)
    Language : English
    Default : No
    Forced : No
    Text
    ID : 6
    Format : UTF-8
    Codec ID : S_TEXT/UTF8
    Codec ID/Info : UTF-8 Plain Text
    Language : English
    Default : Yes
    Forced : No

    Скриншоты

    Скачать .torrent

    Скачать торрент-файл бесплатно и на максимальной скорости!

    Как скачивать? · Что такое торрент? · Рейтинг и ограничения

    !ВНИМАНИЕ!
    Сайт не распространяет и не хранит электронные версии произведений, а занимается лишь лишь предоставлением доступа к создаваемому пользователями каталогу ссылок на торрент-файлы, которые содержат только списки хеш-сумм, убедительная просьба с жалобами обращаться напрямую к пользователю. Файлы для обмена на трекере предоставлены пользователями сайта, и администрация не несёт ответственности за их содержание. Просьба не заливать файлы, защищенные авторскими правами, а также файлы нелегального содержания!


    _________________
    [Профиль] [ЛС]
    Показать сообщения:    
    Ответить на тему

    Текущее время: Сегодня, в 08:01

    Часовой пояс: GMT + 2



    Вы не можете начинать темы
    Вы не можете отвечать на сообщения
    Вы не можете редактировать свои сообщения
    Вы не можете удалять свои сообщения
    Вы не можете голосовать в опросах
    Вы не можете прикреплять файлы к сообщениям
    Вы не можете скачивать файлы