BitTorrentTracker PerecTracker.org
BitTorrentTracker PerecTracker.org
    
Регистрация  ·  Вход
 
 · 
Забыли пароль?

  • Завещание Холкрофта / The Holcroft Covenant (Джон Франкенхаймер / John Frankenheimer) [1985, Великобритания, детектив, триллер, BDRemux 1080p] DVO + Sub Eng + Original Eng

    Ответить на тему
     
    Автор Сообщение

    Light

    Создавать темы 26-Май-2016 18:29

           

    [Цитировать]

    -Завещание Холкрофта / The Holcroft Covenant-Страна: Великобритания
    Жанр: детектив, триллер
    Год выпуска: 1985
    Продолжительность: 01:52:39-Перевод: Профессиональный (двухголосый закадровый)
    Cубтитры: английские
    Оригинальная аудиодорожка: английский-Режиссер: Джон Франкенхаймер / John Frankenheimer
    В ролях: Майкл Кейн, Энтони Эндрюс, Виктория Теннант, Лилли Пальмер, Марио Адорф, Микаэль Лонсдаль, Бернард Хептон, Рихард Мюнх, Карл Ригг, Андре Пенверн-Описание: Сын высокопоставленного нациста в наше время оказывается распорядителем многомиллионного фонда. Деньги оставлены ему отцом, который под конец жизни раскаялся в своих грехах и настоял на том, чтобы сын с несколькими товарищами направил миллионы на благие дела. Но совершенно ясно, что у этого начинания оказалось много врагов. Главный герой оказывается в ловушке.-Сэмпл-Тип релиза: BDRemux 1080p
    Контейнер: MKV
    Видео: MPEG-4 AVC Video / 28840 kbps / 1080p / 23.976 fps / 16:9 / High Profile 4.1
    Аудио: Russian / Dolby Digital Audio / 2.0 / 48 kHz / 192 kbps
    Аудио 2: English / DTS-HD Master Audio / 2.0 / 48 kHz / 1685 kbps / 16-bit (DTS Core: 2.0 / 48 kHz / 1509 kbps / 16-bit)
    Аудио 3: English / Dolby Digital Audio / 2.0 / 48 kHz / 256 kbps |Commentary by Director John Frankenheimer|
    Формат субтитров: softsub (SRT)

    MI

    GeneralUnique ID : 244770482569042505802651335151457002630 (0xB82514873678C357A60834C1AF39E486)Complete name : S:\На хранении\Завещание Холкрофта (1985. The Holcroft Covenant).mkvFormat : MatroskaFormat version : Version 4 / Version 2File size : 24.4 GiBDuration : 1h 52mnOverall bit rate mode : VariableOverall bit rate : 31.1 MbpsMovie name : Release for RuTrackerEncoded date : UTC 2016-05-25 16:36:56Writing application : mkvmerge v9.0.1 ('Obstacles') 64bitWriting library : libebml v1.3.3 + libmatroska v1.4.4Cover : YesAttachments : cover.jpg
    VideoID : 1Format : AVCFormat/Info : Advanced Video CodecFormat profile : High@L4.1Format settings, CABAC : YesFormat settings, ReFrames : 4 framesCodec ID : V_MPEG4/ISO/AVCDuration : 1h 52mnBit rate mode : VariableBit rate : 28.9 MbpsMaximum bit rate : 35.0 MbpsWidth : 1 920 pixelsHeight : 1 080 pixelsDisplay aspect ratio : 16:9Frame rate mode : ConstantFrame rate : 23.976 (24000/1001) fpsStandard : NTSCColor space : YUVChroma subsampling : 4:2:0Bit depth : 8 bitsScan type : ProgressiveBits/(Pixel*Frame) : 0.582Stream size : 22.8 GiB (93%)Title : THE_HOLCROFT_COVENANT_1985_REMUX_HDCLUBLanguage : EnglishDefault : YesForced : NoColor range : LimitedColor primaries : BT.709Transfer characteristics : BT.709Matrix coefficients : BT.709
    Audio #1ID : 2Format : AC-3Format/Info : Audio Coding 3Mode extension : CM (complete main)Format settings, Endianness : BigCodec ID : A_AC3Duration : 1h 52mnBit rate mode : ConstantBit rate : 192 KbpsChannel(s) : 2 channelsChannel positions : Front: L RSampling rate : 48.0 KHzFrame rate : 31.250 fps (1536 spf)Compression mode : LossyStream size : 155 MiB (1%)Title : DVOLanguage : RussianDefault : YesForced : No
    Audio #2ID : 3Format : DTSFormat/Info : Digital Theater SystemsFormat profile : MA / CoreMode : 16Format settings, Endianness : BigCodec ID : A_DTSDuration : 1h 52mnBit rate mode : Variable / ConstantBit rate : 1 687 Kbps / 1 509 KbpsChannel(s) : 2 channelsChannel positions : Front: L RSampling rate : 48.0 KHzFrame rate : 93.750 fps (512 spf)Bit depth : 16 bitsCompression mode : Lossless / LossyStream size : 1.33 GiB (5%)Language : EnglishDefault : NoForced : No
    Audio #3ID : 4Format : AC-3Format/Info : Audio Coding 3Mode extension : CM (complete main)Format settings, Endianness : BigCodec ID : A_AC3Duration : 1h 52mnBit rate mode : ConstantBit rate : 256 KbpsChannel(s) : 2 channelsChannel positions : Front: L RSampling rate : 48.0 KHzFrame rate : 31.250 fps (1536 spf)Compression mode : LossyStream size : 205 MiB (1%)Title : Commentary by Director John FrankenheimerLanguage : EnglishDefault : NoForced : No
    TextID : 5Format : UTF-8Codec ID : S_TEXT/UTF8Codec ID/Info : UTF-8 Plain TextDuration : 1h 46mnBit rate : 58 bpsCount of elements : 1104Stream size : 45.8 KiB (0%)Language : EnglishDefault : NoForced : No
    Menu00:00:00.000 : en:00:00:00.00000:15:48.364 : en:00:15:48.36400:28:39.217 : en:00:28:39.21700:45:37.901 : en:00:45:37.90100:58:04.898 : en:00:58:04.89801:10:55.167 : en:01:10:55.16701:24:30.190 : en:01:24:30.19001:38:42.583 : en:01:38:42.583
    Скриншоты

    Зеркало


    Цитата:
    Цитата:

    • Релиз Spiellberg и
    • Сохранены оригинальные главы как на Blu-ray.
    Скачать .torrent

    Скачать торрент-файл бесплатно и на максимальной скорости!

    Как скачивать? · Что такое торрент? · Рейтинг и ограничения

    !ВНИМАНИЕ!
    Сайт не распространяет и не хранит электронные версии произведений, а занимается лишь лишь предоставлением доступа к создаваемому пользователями каталогу ссылок на торрент-файлы, которые содержат только списки хеш-сумм, убедительная просьба с жалобами обращаться напрямую к пользователю. Файлы для обмена на трекере предоставлены пользователями сайта, и администрация не несёт ответственности за их содержание. Просьба не заливать файлы, защищенные авторскими правами, а также файлы нелегального содержания!


    _________________
    [Профиль] [ЛС]
    Показать сообщения:    
    Ответить на тему

    Текущее время: Сегодня, в 18:55

    Часовой пояс: GMT + 2



    Вы не можете начинать темы
    Вы не можете отвечать на сообщения
    Вы не можете редактировать свои сообщения
    Вы не можете удалять свои сообщения
    Вы не можете голосовать в опросах
    Вы не можете прикреплять файлы к сообщениям
    Вы не можете скачивать файлы