BitTorrentTracker PerecTracker.org
BitTorrentTracker PerecTracker.org
    
Регистрация  ·  Вход
 
 · 
Забыли пароль?

  • Колокольчики / Колокола / The Bells (Джеймс Янг / James Young) [1926, США, драма, криминал, DVDRip] [Немое кино] интертитры (Eng) Sub Rus

    Ответить на тему
     
    Автор Сообщение

    Columb

    Создавать темы 18-Фев-2014 21:00

           

    [Цитировать]

    Колокольчики / The Bells
    Страна: США
    Жанр: драма, криминал
    Год выпуска: 1926
    Продолжительность: 1:08:31
    Перевод: Субтитры (AlekceyR76)
    Cубтитры: русские
    Интертитры: английские
    Аудиодорожка: музыкальное сопровождение - композитор Eric Beheim и "William Pratt Players"
    Режиссер: Джеймс Янг / James Young
    В ролях: Лайонел Бэрримор, Кэролайн Фрэнсис Кук, Густав Фон Зайффертиц, Лоример Джонстон, Эдвард Филлипс, Лола Тодд, Лаура Лаварнье, Борис Карлофф, Элин Уоррен
    Описание: По пьесе Эркмана-Шатриана "Польский еврей"
    Жил в маленьком городке у подножия горы, в Эльзасе, в общем-то хороший человек – Матиас. Держал он таверну и мельницу. Горожане его любили за добрый нрав, позволяющий им выпить кружку-другую вина в долг или получить в долг муки на мельнице. Жену свою Матиас любил, а тут и красавица дочка подросла, в которую влюбился бравый молодой офицер, недавно присланный возглавлять жандармерию города. Словом, живи да радуйся, если бы не главная мечта Матиаса – стать бургомистром. Ради неё пришлось заложить таверну и мельницу соседу Францу за шесть тысяч франков, излишняя благотворительность доходам так же не способствовала. А срок возврата денег близился, Франц грозил выкинуть на улицу всю семью. Было о чем задуматься Матиасу в рождественскую ночь во время сильнейшей бури… но тут в таверну постучался странник, польский еврей Барух Ковеский, желающий немного согреться и передохнуть. А в поясе у него Матиас увидел много яркого, сияющего золота… (c) AlekceyR76
    Доп. информация:
    Качество видео: DVDRip
    Формат видео: AVI
    Видео: 640x480 (1.33:1), 23.976 fps, XviD build 50 ~1291 kbps avg, 0.17 bit/pixel
    Аудио: 48 kHz, MPEG Layer 3, 1 ch, ~128.00 kbps avg
    Формат субтитров: softsub (SRT)

    MediaInfo

    GeneralComplete name : ...\The Bells 1926.aviFormat : AVIFormat/Info : Audio Video InterleaveFile size : 700 MiBDuration : 1h 8mnOverall bit rate : 1 429 KbpsWriting application : VirtualDubMod 1.5.10.3 | www.virtualdub-fr.org || (build 2550/release)Writing library : VirtualDubMod build 2550/release
    VideoID : 0Format : MPEG-4 VisualFormat profile : Advanced Simple@L5Format settings, BVOP : 2Format settings, QPel : NoFormat settings, GMC : No warppointsFormat settings, Matrix : Default (H.263)Codec ID : XVIDCodec ID/Hint : XviDDuration : 1h 8mnBit rate : 1 291 KbpsWidth : 640 pixelsHeight : 480 pixelsDisplay aspect ratio : 4:3Frame rate : 23.976 fpsColor space : YUVChroma subsampling : 4:2:0Bit depth : 8 bitsScan type : ProgressiveCompression mode : LossyBits/(Pixel*Frame) : 0.175Stream size : 633 MiB (90%)Writing library : XviD 1.2.1 (UTC 2008-12-04)
    AudioID : 1Format : MPEG AudioFormat version : Version 1Format profile : Layer 3Codec ID : 55Codec ID/Hint : MP3Duration : 1h 8mnBit rate mode : ConstantBit rate : 128 KbpsChannel(s) : 1 channelSampling rate : 48.0 KHzCompression mode : LossyStream size : 62.7 MiB (9%)Alignment : Aligned on interleavesInterleave, duration : 42 ms (1.00 video frame)Interleave, preload duration : 504 msWriting library : LAME3.99.1

    Скриншоты

    Фрагмент субтитров

    3100:14:07,293 --> 00:14:14,825Праздничная ярмарка -гудит по всей стране.
    3200:15:41,254 --> 00:15:43,779Много долгов... и мало денег.
    3300:15:54,734 --> 00:16:04,234Так вот, если ты устроишь бракмежду своей дочерью и мной,я мог бы простить этот долг.
    3400:16:13,286 --> 00:16:22,319Говорю тебе - моя дочь выйдетзамуж за того, кого выберет -и не ты будешь этим человеком.
    3500:16:31,270 --> 00:16:37,869Ты запоешь другую песню, когдая выставлю вас на улицу просить милостыню.
    3600:17:46,278 --> 00:17:51,238Подошел один - подходите все!Девушки порядочные и солдаты смелые,
    3700:17:51,450 --> 00:17:57,252для вас будущее я раскрою.Гадалка...Лаура Лаварнье
    3800:18:40,366 --> 00:18:44,803Гипнотизер - исполняет трюки,заставляющие весь городок удивляться....Борис Карлофф
    3900:20:54,333 --> 00:21:03,708Позвольте мне погрузить вас вгипнотический сон - и я смогу рассказатьо любом случае из вашей жизни.
    4000:21:18,457 --> 00:21:22,553Я могу заставить преступниковпризнаться в своих преступлениях,
    4100:21:22,761 --> 00:21:26,561а хороших людей - рассказатьо своих добрых делах.
    4200:24:00,219 --> 00:24:09,093Рождество принесло Матиасу не успокоениеили добрую волю от соседа Франца, а...
    4300:26:37,342 --> 00:26:39,367Мир вам!
    4400:26:49,288 --> 00:26:55,284Снег глубок, дорога темна.Могу я отдохнуть здесь часок?
    4500:26:55,494 --> 00:27:03,333Я странствующий торговец из Варшавы.Барух Ковеский - польский еврей...Элин Уоррен
    4600:29:03,121 --> 00:29:06,318На меня свалились неприятности...много неприятностей.
    4700:29:38,590 --> 00:29:43,357Неужели там столько золота -в вашем поясе для денег?
    4800:29:49,301 --> 00:29:52,793Да, друг - много золота -яркого, сияющего золота.
    4900:30:37,215 --> 00:30:39,206Мир вам!
    Скачать .torrent

    Скачать торрент-файл бесплатно и на максимальной скорости!

    Как скачивать? · Что такое торрент? · Рейтинг и ограничения

    !ВНИМАНИЕ!
    Сайт не распространяет и не хранит электронные версии произведений, а занимается лишь лишь предоставлением доступа к создаваемому пользователями каталогу ссылок на торрент-файлы, которые содержат только списки хеш-сумм, убедительная просьба с жалобами обращаться напрямую к пользователю. Файлы для обмена на трекере предоставлены пользователями сайта, и администрация не несёт ответственности за их содержание. Просьба не заливать файлы, защищенные авторскими правами, а также файлы нелегального содержания!

    [Профиль] [ЛС]
    Показать сообщения:    
    Ответить на тему

    Текущее время: Сегодня, в 08:00

    Часовой пояс: GMT + 2



    Вы не можете начинать темы
    Вы не можете отвечать на сообщения
    Вы не можете редактировать свои сообщения
    Вы не можете удалять свои сообщения
    Вы не можете голосовать в опросах
    Вы не можете прикреплять файлы к сообщениям
    Вы не можете скачивать файлы