BitTorrentTracker PerecTracker.org
BitTorrentTracker PerecTracker.org
    
Регистрация  ·  Вход
 
 · 
Забыли пароль?

  • Сердца бумеранг (Николай Хомерики) [2011, драма, DVB]

    Ответить на тему
     
    Автор Сообщение

    Flirldrerve

    Создавать темы 26-Май-2016 14:21

           

    [Цитировать]

    Сердца бумеранг
    Жанр: драма
    Год выпуска: 2011
    Продолжительность: 1:31:44
    Режиссёр: Николай Хомерики
    В ролях: Александр Яценко, Наталья Батрак, Клавдия Коршунова, Павел Петров, Игорь Волков, Александр Ильин, Екатерина Семенова, Рената Литвинова, Татьяна Рыбинец, Алиса Хазанова
    Описание: Косте 23, он работает помощником машиниста в метро. Однажды врач говорит Косте, что у него больное сердце и он может умереть в любой момент. Костя решает никому не говорить о своей болезни. Он пытается жить как раньше, но всё чаще размышляет о смысле жизни.
    Доп. информация: Запись с эфира канала Россия К (Культура) 4 декабря 2015 года
    Главное отличие от этой http://perectracker.org/http://perectracker.org/viewtopic.php?t=4693446 раздачи - отсутствие таймкода.
    В раздаче есть небольшой файл - вступительное слово о фильме режиссёра и продюсера.
    Сэмпл: https://yadi.sk/d/cT-rOcpMs23Wv
    Качество видео: DVB
    Формат видео: MPEG-PS
    Видео: MPEG Video, 720@768x576, 4:3, 25,000 кадров/сек, 1754 Кбит/сек, 0.169 бит/пиксель
    Аудио: MPEG-1 Layer 2, 192 Кбит/сек, 48,0 КГц, 2 канала

    MediaInfo

    Общее
    Полное имя : D:\Библиотеки\Видео\Сердца бумеранг (2011) DVB\Сердца бумеранг (2011).mpg
    Формат : MPEG-PS
    Размер файла : 1,27 Гбайт
    Продолжительность : 1 ч. 31 м.
    Режим общего битрейта : Переменный
    Общий поток : 1986 Кбит/сек
    Библиотека кодирования : (c) 1998-2009 Womble Multimedia, Inc. / MPEG Video Wizard (03/2009) / Jun 24 2009
    Видео
    Идентификатор : 224 (0xE0)
    Формат : MPEG Video
    Версия формата : Version 2
    Профиль формата : Main@Main
    Параметр BVOP формата : Да
    Параметр матрицы формата : Выборочная
    Параметр GOP формата : Variable
    Format_Settings_PictureStructure : Frame
    Продолжительность : 1 ч. 31 м.
    Вид битрейта : Переменный
    Битрейт : 1754 Кбит/сек
    Максимальный битрейт : 15,0 Мбит/сек
    Ширина : 720 пикселей
    Высота : 576 пикселей
    Соотношение сторон : 4:3
    Частота кадров : 25,000 кадров/сек
    Стандарт вещания : PAL
    Цветовое пространство : YUV
    Субдискретизация насыщенности : 4:2:0
    Битовая глубина : 8 бит
    Тип развёртки : Чересстрочная
    Порядок развёртки : Верхнее поле первое
    Метод сжатия : С потерями
    Бит/(Пиксели*Кадры) : 0.169
    Временной код первого кадра : 00:00:00:00
    Оригинал временного кода : Group of pictures header
    Размер потока : 1,12 Гбайт (88%)
    Библиотека кодирования : (c) 1998-2009 Womble Multimedia, Inc. / MPEG Video Wizard (03/2009) / Jun 24 2009
    Аудио
    Идентификатор : 192 (0xC0)
    Формат : MPEG Audio
    Версия формата : Version 1
    Профиль формата : Layer 2
    Продолжительность : 1 ч. 31 м.
    Вид битрейта : Постоянный
    Битрейт : 192 Кбит/сек
    Каналы : 2 канала
    Частота : 48,0 КГц
    Метод сжатия : С потерями
    Размер потока : 126 Мбайт (10%)

    Скриншот c названием фильма

    Скриншоты

    Скачать .torrent

    Скачать торрент-файл бесплатно и на максимальной скорости!

    Как скачивать? · Что такое торрент? · Рейтинг и ограничения

    !ВНИМАНИЕ!
    Сайт не распространяет и не хранит электронные версии произведений, а занимается лишь лишь предоставлением доступа к создаваемому пользователями каталогу ссылок на торрент-файлы, которые содержат только списки хеш-сумм, убедительная просьба с жалобами обращаться напрямую к пользователю. Файлы для обмена на трекере предоставлены пользователями сайта, и администрация не несёт ответственности за их содержание. Просьба не заливать файлы, защищенные авторскими правами, а также файлы нелегального содержания!


    _________________
    [Профиль] [ЛС]
    Показать сообщения:    
    Ответить на тему

    Текущее время: Сегодня, в 19:56

    Часовой пояс: GMT + 2



    Вы не можете начинать темы
    Вы не можете отвечать на сообщения
    Вы не можете редактировать свои сообщения
    Вы не можете удалять свои сообщения
    Вы не можете голосовать в опросах
    Вы не можете прикреплять файлы к сообщениям
    Вы не можете скачивать файлы