BitTorrentTracker PerecTracker.org
BitTorrentTracker PerecTracker.org
    
Регистрация  ·  Вход
 
 · 
Забыли пароль?

  • Зверополис / Zootopia (Байрон Ховард / Byron Howard, Рич Мур / Rich Moore, Джаред Буш / Jared Bush) [2016, США, Комедия, приключения, семейный, BDRip-AVC] Dub (Line) + Original Eng + eng sub

    Ответить на тему
     
    Автор Сообщение

    Flirldrerve

    Создавать темы 26-Май-2016 14:21

           

    [Цитировать]


    Зверополис / Zootopia
    «Welcome to the urban jungle»
    Страна: США
    Студия: Walt Disney Pictures, Walt Disney Animation Studios
    Жанр: Комедия, приключения, семейный
    Продолжительность: 01:48:32
    Год выпуска: 2016
    Перевод: Профессиональный (дублированный) - Центр. канал Line
    Оригинальная аудиодорожка: английский
    Русские субтитры: нет--Режиссёр: Байрон Ховард / Byron Howard, Рич Мур / Rich Moore, Джаред Буш / Jared Bush--Роли озвучивали: Джиннифер Гудвин, Джейсон Бейтмен, Идрис Эльба, Дженни Слейт, Нейт Торренс, Бонни Хант, Дон Лейк, Томми Чонг, Дж.К. Симмонс, Октавия Спенсер, Алан Тьюдик, Шакира, Рэймонд С. Перси, Делла Саба, Морис ЛаМарш, Фуския, Джон Ди Маджио, Кэти Лоус, Джесси Корти, Том ’Тайни’ Листер мл.--Роли дублировали: Мария Ивакова, Антон Лаврентьев, Борис Хасанов, Мария Аронова, Андрей Мошков, Татьяна Шитова, Денис Некрасов, Владимир Меньшов, Инга Сметанина, Филипп Лебедев, Варвара Чабан, Николай Дроздов, Василиса Эльдарова, Сергей Чихачев, Владимир Рыбальченко--Описание: Добро пожаловать в Зверополис - современный город, населенный самыми разными животными, от огромных слонов до крошечных мышек. Зверополис разделен на районы, полностью повторяющие естественную среду обитания разных жителей - здесь есть и элитный район Площадь Сахары и неприветливый Тундратаун. В этом городе появляется новый офицер полиции, жизнерадостная зайчиха Джуди Хоппс, которая с первых дней работы понимает, как сложно быть маленькой и пушистой среди больших и сильных полицейских. Джуди хватается за первую же возможность проявить себя, несмотря на то, что ее партнером будет болтливый хитрый лис Ник Уайлд. Вдвоем им предстоит раскрыть сложное дело, от которого будет зависеть судьба всех обитателей Зверополиса.--Доп. информация: | IMDB | КиноПоиск | Сэмпл |--Качество: BDRip-AVC Zootopia.2016.BDRemux.1080p.LINE.RUS nnmclub
    Формат: MKV
    Видео: AVC, 1132x474, (2,40:1), 2080 kbps, 23.976 fps, 0.162 bit/pixel
    Аудио 1: AC3 Dolby Digital, 3/2 (L,C,R,l,r) + LFE ch, 48 kHz, 384 kbps Центр [Line]
    Аудио 2: AC3 Dolby Digital, 3/2 (L,C,R,l,r) + LFE ch, 48 kHz, 448 kbps
    Субтитры: English
    Подробные технические данные

    x264

    raw [info]: 1132x474p 1:1 @ 24000/1001 fps (cfr)
    x264 [info]: using SAR=1/1
    x264 [info]: using cpu capabilities: MMX2 SSE2Fast SSSE3 SSE4.2 AVX
    x264 [info]: profile High, level 4.1
    x264 [info]: cabac=1 ref=12 deblock=1:-3:-2 analyse=0x3:0x133 me=umh subme=11 psy=1 fade_compensate=0.00 psy_rd=1.05:0.03 mixed_ref=1 me_range=48 chroma_me=1 trellis=2 8x8dct=1 cqm=0 deadzone=21,11 fast_pskip=0 chroma_qp_offset=-3 threads=6 lookahead_threads=1 sliced_threads=0 nr=0 decimate=1 interlaced=0 bluray_compat=0 constrained_intra=0 fgo=0 bframes=14 b_pyramid=2 b_adapt=2 b_bias=0 direct=3 weightb=1 open_gop=0 weightp=2 keyint=250 keyint_min=23 scenecut=40 intra_refresh=0 rc_lookahead=60 rc=crf mbtree=0 crf=17.2000 qcomp=0.60 qpmin=0 qpmax=69 qpstep=4 vbv_maxrate=50000 vbv_bufsize=62500 crf_max=0.0 nal_hrd=none filler=0 ip_ratio=1.40 pb_ratio=1.30 aq=2:0.90 zones=143940,156141,crf=37.8
    x264 [info]: frame I:1388 Avg QP:16.30 size: 79082
    x264 [info]: frame P:31870 Avg QP:18.41 size: 24696
    x264 [info]: frame B:122883 Avg QP:21.57 size: 6488
    x264 [info]: consecutive B-frames: 2.0% 1.8% 4.7% 22.2% 20.0% 31.5% 6.4% 3.2% 1.2% 0.6% 0.5% 5.4% 0.1% 0.1% 0.2%
    x264 [info]: mb I I16..4: 6.3% 71.0% 22.7%
    x264 [info]: mb P I16..4: 0.7% 7.9% 1.7% P16..4: 30.3% 35.5% 13.5% 2.6% 0.3% skip: 7.4%
    x264 [info]: mb B I16..4: 0.0% 0.7% 0.1% B16..8: 31.3% 16.1% 2.8% direct: 3.4% skip:45.5% L0:41.7% L1:46.0% BI:12.4%
    x264 [info]: 8x8 transform intra:75.5% inter:58.9%
    x264 [info]: direct mvs spatial:99.9% temporal:0.1%
    x264 [info]: coded y,uvDC,uvAC intra: 90.5% 89.5% 75.9% inter: 15.5% 16.5% 4.9%
    x264 [info]: i16 v,h,dc,p: 14% 17% 4% 66%
    x264 [info]: i8 v,h,dc,ddl,ddr,vr,hd,vl,hu: 8% 9% 5% 10% 14% 13% 14% 12% 15%
    x264 [info]: i4 v,h,dc,ddl,ddr,vr,hd,vl,hu: 10% 9% 3% 10% 15% 13% 14% 11% 14%
    x264 [info]: i8c dc,h,v,p: 38% 27% 18% 17%
    x264 [info]: Weighted P-Frames: Y:3.3% UV:2.7%
    x264 [info]: ref P L0: 47.5% 9.2% 16.4% 6.3% 5.2% 3.9% 3.5% 1.9% 1.8% 1.5% 1.5% 1.4% 0.1% 0.0%
    x264 [info]: ref B L0: 75.7% 10.3% 5.1% 2.4% 1.8% 1.5% 1.2% 0.7% 0.6% 0.4% 0.2%
    x264 [info]: ref B L1: 94.4% 5.6%
    x264 [info]: kb/s:2081.06
    General
    Unique ID : 250240131984936375784563119843997738571 (0xBC427F10A4EA2A19A2EC4A5CA215664B)
    Complete name : Zootopia (2016).mkv
    Format : Matroska
    Format version : Version 4 / Version 2
    File size : 2.21 GiB
    Duration : 1h 48mn
    Overall bit rate : 2 916 Kbps
    Movie name : Зверополис / Zootopia (2016)
    Encoded date : UTC 2016-05-26 08:51:07
    Writing application : mkvmerge v8.1.0 ('Psychedelic Postcard') 64bit
    Writing library : libebml v1.3.1 + libmatroska v1.4.2
    Cover : Yes
    Attachments : cover.jpg
    Video
    ID : 1
    Format : AVC
    Format/Info : Advanced Video Codec
    Format profile : High@L4.1
    Format settings, CABAC : Yes
    Format settings, ReFrames : 12 frames
    Codec ID : V_MPEG4/ISO/AVC
    Duration : 1h 48mn
    Bit rate : 2 081 Kbps
    Width : 1 132 pixels
    Height : 474 pixels
    Display aspect ratio : 2.40:1
    Frame rate mode : Constant
    Frame rate : 23.976 (24000/1001) fps
    Color space : YUV
    Chroma subsampling : 4:2:0
    Bit depth : 8 bits
    Scan type : Progressive
    Bits/(Pixel*Frame) : 0.162
    Stream size : 1.58 GiB (71%)
    Title : Zootopia (2016) By optik.1557
    Writing library : x264 core 148 r2692kMod 64f4e24
    Encoding settings : cabac=1 / ref=12 / deblock=1:-3:-2 / analyse=0x3:0x133 / me=umh / subme=11 / psy=1 / fade_compensate=0.00 / psy_rd=1.05:0.03 / mixed_ref=1 / me_range=48 / chroma_me=1 / trellis=2 / 8x8dct=1 / cqm=0 / deadzone=21,11 / fast_pskip=0 / chroma_qp_offset=-3 / threads=6 / lookahead_threads=1 / sliced_threads=0 / nr=0 / decimate=1 / interlaced=0 / bluray_compat=0 / constrained_intra=0 / fgo=0 / bframes=14 / b_pyramid=2 / b_adapt=2 / b_bias=0 / direct=3 / weightb=1 / open_gop=0 / weightp=2 / keyint=250 / keyint_min=23 / scenecut=40 / intra_refresh=0 / rc_lookahead=60 / rc=crf / mbtree=0 / crf=17.2000 / qcomp=0.60 / qpmin=0 / qpmax=69 / qpstep=4 / vbv_maxrate=50000 / vbv_bufsize=62500 / crf_max=0.0 / nal_hrd=none / filler=0 / ip_ratio=1.40 / pb_ratio=1.30 / aq=2:0.90 / zones=143940,156141,crf=37.8
    Language : English
    Default : Yes
    Forced : No
    Audio #1
    ID : 2
    Format : AC-3
    Format/Info : Audio Coding 3
    Mode extension : CM (complete main)
    Format settings, Endianness : Big
    Codec ID : A_AC3
    Duration : 1h 48mn
    Bit rate mode : Constant
    Bit rate : 384 Kbps
    Channel(s) : 6 channels
    Channel positions : Front: L C R, Side: L R, LFE
    Sampling rate : 48.0 KHz
    Frame rate : 31.250 fps (1536 spf)
    Compression mode : Lossy
    Stream size : 298 MiB (13%)
    Title : Дубляж [Line]
    Language : Russian
    Default : Yes
    Forced : No
    Audio #2
    ID : 3
    Format : AC-3
    Format/Info : Audio Coding 3
    Mode extension : CM (complete main)
    Format settings, Endianness : Big
    Codec ID : A_AC3
    Duration : 1h 48mn
    Bit rate mode : Constant
    Bit rate : 448 Kbps
    Channel(s) : 6 channels
    Channel positions : Front: L C R, Side: L R, LFE
    Sampling rate : 48.0 KHz
    Frame rate : 31.250 fps (1536 spf)
    Compression mode : Lossy
    Stream size : 348 MiB (15%)
    Title : Original
    Language : English
    Default : No
    Forced : No
    Text
    ID : 4
    Format : UTF-8
    Codec ID : S_TEXT/UTF8
    Codec ID/Info : UTF-8 Plain Text
    Duration : 1h 38mn
    Bit rate : 71 bps
    Count of elements : 1698
    Stream size : 51.6 KiB (0%)
    Language : English
    Default : No
    Forced : No
    Menu
    00:00:00.000 : en:00:00:00.000
    00:00:59.559 : en:00:00:59.559
    00:05:50.100 : en:00:05:50.100
    00:10:05.563 : en:00:10:05.563
    00:14:31.537 : en:00:14:31.537
    00:18:24.019 : en:00:18:24.019
    00:26:03.353 : en:00:26:03.353
    00:30:57.439 : en:00:30:57.439
    00:37:07.100 : en:00:37:07.100
    00:40:43.441 : en:00:40:43.441
    00:44:31.752 : en:00:44:31.752
    00:51:40.430 : en:00:51:40.430
    00:55:40.378 : en:00:55:40.378
    01:00:48.269 : en:01:00:48.269
    01:03:37.855 : en:01:03:37.855
    01:09:19.822 : en:01:09:19.822
    01:13:39.165 : en:01:13:39.165
    01:17:07.372 : en:01:17:07.372
    01:21:52.366 : en:01:21:52.366
    01:28:19.169 : en:01:28:19.169
    01:32:43.433 : en:01:32:43.433
    01:36:12.141 : en:01:36:12.141

    Скриншоты

    Скачать .torrent

    Скачать торрент-файл бесплатно и на максимальной скорости!

    Как скачивать? · Что такое торрент? · Рейтинг и ограничения

    !ВНИМАНИЕ!
    Сайт не распространяет и не хранит электронные версии произведений, а занимается лишь лишь предоставлением доступа к создаваемому пользователями каталогу ссылок на торрент-файлы, которые содержат только списки хеш-сумм, убедительная просьба с жалобами обращаться напрямую к пользователю. Файлы для обмена на трекере предоставлены пользователями сайта, и администрация не несёт ответственности за их содержание. Просьба не заливать файлы, защищенные авторскими правами, а также файлы нелегального содержания!


    _________________
    [Профиль] [ЛС]
    Показать сообщения:    
    Ответить на тему

    Текущее время: Сегодня, в 14:42

    Часовой пояс: GMT + 2



    Вы не можете начинать темы
    Вы не можете отвечать на сообщения
    Вы не можете редактировать свои сообщения
    Вы не можете удалять свои сообщения
    Вы не можете голосовать в опросах
    Вы не можете прикреплять файлы к сообщениям
    Вы не можете скачивать файлы