BitTorrentTracker PerecTracker.org
BitTorrentTracker PerecTracker.org
    
Регистрация  ·  Вход
 
 · 
Забыли пароль?

  • [ATV3] Лазурный берег / By the Sea (Анджелина Джоли / Angelina Jolie ) [2015, США, Франция , Драма, мелодрама, WEB-DL, HD (1080p)] DUB + Original + sub (rus, ukr, eng)

    Ответить на тему
     
    Автор Сообщение

    rechyn

    Создавать темы 26-Май-2016 14:21

           

    [Цитировать]

    Лазурный берег / By the Sea
    -
    5.849 / 10 5.30 / 10
    -Год выпуска: 2015
    Страна: США, Франция
    Жанр: Драма, мелодрама
    Продолжительность: 02:02:24
    Перевод: Дублированный (iTunes)
    Оригинальная аудиодорожка: Есть
    Cубтитры: Русские форсированные, Русские, Украинские, Английские
    Режиссёр: Анджелина Джоли
    Сценарий: Анджелина Джоли
    Продюсер: Брэд Питт, Крис Бригэм, Холли Голайн
    Оператор: Кристиан Бергер
    Композитор: Габриэль Яред
    Художник: Джон Хатмэн, Том Браун, Чарло Далли
    Монтаж: Мартин Пенса, Патриция Роммель
    В ролях: Брэд Питт, Анджелина Джоли, Мелани Лоран, Мельвиль Пупо, Нильс Ареструп, Ришар Боренже, Марика Грин, Сара Науди, Альдо Бонтемпо, Филипп Мартине
    Бюджет: $10 000 000
    Сборы в США: $538 460
    Сборы в мире: + $2 796 467 = $3 334 927
    Сборы в России: $209 852
    Мировая премьера: 5 ноября 2015
    Премьера (РФ): 11 февраля 2016, «UPI»
    Описание: Франция. Середина 1970-х. Ванесса, бывшая танцовщица, и ее муж Роланд, американский писатель, путешествуют вместе по стране. Понемногу они начинают отдаляться друг от друга, но все меняется, когда они задерживаются в одном тихом приморском городке…-Качество исходника: WEB-DL 1080p (BlueBird)
    Качество: WEB-DL
    Тип: HD (1080p)
    Контейнер: M4V
    Видео: H.264, 1916x796, 2.40:1, 4 490 Kbps, 23.976 (23976/1000) fps
    Аудио 1: Русский/Дублированный (iTunes), AAC / 2.0 / 156 Kbps / 48.0 KHz
    Аудио 2: Английский/Оригинальная дорожка , AAC / 2.0 / 155 Kbps / 48.0 KHz
    Аудио 3: Русский/Дублированный (iTunes), AC-3 / 5.1 / 384 Kbps / 48.0 KHz
    Аудио 4: Английский/Оригинальная дорожка , AC-3 / 5.1 / 384 Kbps / 48.0 KHz
    Субтитры 1: Русские форсированные
    Субтитры 2: Русские полные
    Субтитры 3: Украинские полные
    Субтитры 4: Английские полные
    -

    iTunes Meta Tags

    Sort Name: By the Sea
    XID: Apple:vendor_id:2015-841272
    contentID: 1053681318
    Copyright: © 2015 Universal Studios. All Rights Reserved.
    Screenwriters: Анджелина Джоли
    Producers: Брэд Питт, Крис Бригэм, Холли Голайн
    Director: Анджелина Джоли
    Cast: Брэд Питт, Анджелина Джоли, Мелани Лоран, Мельвиль Пупо, Нильс Ареструп, Ришар Боренже, Марика Грин, Сара Науди, Альдо Бонтемпо, Филипп Мартине, Юрий Деркач, Ольга Зубкова, Наталья Грачёва, Вадим Медведев, Василий Дахненко
    Studio: Universal Pictures
    Rating: 5
    Long Description: Франция. Середина 1970-х. Ванесса, бывшая танцовщица, и ее муж Роланд, американский писатель, путешествуют вместе по стране. Понемногу они начинают отдаляться друг от друга, но все меняется, когда они задерживаются в одном тихом приморском городке...
    Description: Франция. Середина 1970-х. Ванесса, бывшая танцовщица, и ее муж Роланд, американский писатель, путешествуют вместе по стране. Понемногу они начинают отдаляться друг от друга, но все меняется, когда они задерживаются в одном тихом приморском городке...
    Release Date: 2015-11-05T08:00:00Z
    Genre: Drama
    Artist: Angelina Jolie Pitt
    Name: By the Sea (2015)

    MediaInfo

    General
    Complete name : /Users/imac/HandBrake/By.the.Sea.WEB-DL.1080p.m4v
    Format : MPEG-4
    Codec ID : M4V  (M4V /M4A /mp42/isom)
    File size : 4.77 GiB
    Duration : 2h 2mn
    Overall bit rate mode : Variable
    Overall bit rate : 5 578 Kbps
    Movie name : By the Sea (2015)
    Performer : Angelina Jolie Pitt
    Director : Анджелина Джоли
    Actor : Брэд Питт / Анджелина Джоли / Мелани Лоран / Мельвиль Пупо / Нильс Ареструп / Ришар Боренже / Марика Грин / Сара Науди / Альдо Бонтемпо / Филипп Мартине / Юрий Деркач / Ольга Зубкова / Наталья Грачёва / Вадим Медведев / Василий Дахненко
    Screenplay by : Анджелина Джоли
    Producer : Брэд Питт / Крис Бригэм / Холли Голайн
    Production studio : Universal Pictures
    Genre : Drama
    ContentType : Short Film
    Description : Франция. Середина 1970-х. Ванесса, бывшая танцовщица, и ее муж Роланд, американский писатель, путешествуют вместе по стране. Понемногу они начинают отдаляться друг от друга, но все меняется, когда они задерживаются в одном тихом приморском городке...
    Recorded date : UTC 2015-11-05 08:00:00
    Encoded date : UTC 2016-05-26 09:43:27
    Tagged date : UTC 2016-05-26 09:46:14
    Copyright : © 2015 Universal Studios. All Rights Reserved.
    Cover : Yes
    Rating : None
    Title/Sort : By the Sea
    LongDescription : Франция. Середина 1970-х. Ванесса, бывшая танцовщица, и ее муж Роланд, американский писатель, путешествуют вместе по стране. Понемногу они начинают отдаляться друг от друга, но все меняется, когда они задерживаются в одном тихом приморском городке...
    AppleStoreCatalogID : 1053681318
    Vendor : Apple:vendor_id:2015-841272
    ContentRating : mpaa|R|400|
    Video #1
    ID : 1
    Format : AVC
    Format/Info : Advanced Video Codec
    Format profile : High@L4
    Format settings, CABAC : Yes
    Format settings, ReFrames : 5 frames
    Codec ID : avc1
    Codec ID/Info : Advanced Video Coding
    Duration : 2h 2mn
    Source duration : 2h 2mn
    Bit rate : 4 490 Kbps
    Width : 1 916 pixels
    Height : 796 pixels
    Display aspect ratio : 2.40:1
    Frame rate mode : Variable
    Frame rate : 23.976 (23976/1000) fps
    Minimum frame rate : 23.810 fps
    Maximum frame rate : 24.390 fps
    Color space : YUV
    Chroma subsampling : 4:2:0
    Bit depth : 8 bits
    Scan type : Progressive
    Bits/(Pixel*Frame) : 0.123
    Stream size : 3.84 GiB (80%)
    Source stream size : 3.84 GiB (80%)
    Title : Main Program
    Language : English
    Encoded date : UTC 2016-05-26 09:43:27
    Tagged date : UTC 2016-05-26 09:44:10
    Color range : Limited
    Color primaries : BT.709
    Transfer characteristics : BT.709
    Matrix coefficients : BT.709
    Menus : 10,11
    Video #2
    ID : 11
    Format : JPEG
    Codec ID : jpeg
    Duration : 2h 2mn
    Bit rate mode : Variable
    Bit rate : 829 bps
    Width : 640 pixels
    Height : 265 pixels
    Display aspect ratio : 2.40:1
    Frame rate mode : Variable
    Frame rate : 0.003 fps
    Minimum frame rate : 0.002 fps
    Maximum frame rate : 0.005 fps
    Color space : YUV
    Chroma subsampling : 4:2:0
    Bit depth : 8 bits
    Compression mode : Lossy
    Bits/(Pixel*Frame) : 1.629
    Stream size : 675 KiB (0%)
    Title : Chapter Images
    Language : English
    Default : No
    Encoded date : UTC 2016-05-26 09:44:17
    Tagged date : UTC 2016-05-26 09:44:17
    Menu For : 1
    Audio #1
    ID : 2
    Format : AAC
    Format/Info : Advanced Audio Codec
    Format profile : LC
    Codec ID : 40
    Duration : 2h 2mn
    Bit rate mode : Variable
    Bit rate : 156 Kbps
    Maximum bit rate : 228 Kbps
    Channel(s) : 2 channels
    Channel positions : Front: L R
    Sampling rate : 48.0 KHz
    Frame rate : 46.875 fps (1024 spf)
    Compression mode : Lossy
    Stream size : 136 MiB (3%)
    Title : Russian Stereo
    Language : Russian
    Default : Yes
    Alternate group : 1
    Encoded date : UTC 2016-05-26 09:43:27
    Tagged date : UTC 2016-05-26 09:44:09
    Fallback From : 4
    Subtitles : 6,7
    Audio #2
    ID : 3
    Format : AAC
    Format/Info : Advanced Audio Codec
    Format profile : LC
    Codec ID : 40
    Duration : 2h 2mn
    Bit rate mode : Variable
    Bit rate : 155 Kbps
    Maximum bit rate : 230 Kbps
    Channel(s) : 2 channels
    Channel positions : Front: L R
    Sampling rate : 48.0 KHz
    Frame rate : 46.875 fps (1024 spf)
    Compression mode : Lossy
    Stream size : 135 MiB (3%)
    Title : English Stereo
    Language : English
    Default : No
    Alternate group : 1
    Encoded date : UTC 2016-05-26 09:43:27
    Tagged date : UTC 2016-05-26 09:44:09
    Fallback From : 5
    Audio #3
    ID : 4
    Format : AC-3
    Format/Info : Audio Coding 3
    Mode extension : CM (complete main)
    Format settings, Endianness : Big
    Codec ID : ac-3
    Duration : 2h 2mn
    Bit rate mode : Constant
    Bit rate : 384 Kbps
    Channel(s) : 6 channels
    Channel positions : Front: L C R, Side: L R, LFE
    Sampling rate : 48.0 KHz
    Frame rate : 31.250 fps (1536 spf)
    Bit depth : 16 bits
    Compression mode : Lossy
    Stream size : 336 MiB (7%)
    Title : Russian DD 5.1
    Language : Russian
    Default : Inherited From: 2
    Alternate group : 1
    Encoded date : UTC 2016-05-26 09:43:27
    Tagged date : UTC 2016-05-26 09:44:09
    Fallback To : 2
    Subtitles : 6,7
    Audio #4
    ID : 5
    Format : AC-3
    Format/Info : Audio Coding 3
    Mode extension : CM (complete main)
    Format settings, Endianness : Big
    Codec ID : ac-3
    Duration : 2h 2mn
    Bit rate mode : Constant
    Bit rate : 384 Kbps
    Channel(s) : 6 channels
    Channel positions : Front: L C R, Side: L R, LFE
    Sampling rate : 48.0 KHz
    Frame rate : 31.250 fps (1536 spf)
    Bit depth : 16 bits
    Compression mode : Lossy
    Stream size : 336 MiB (7%)
    Title : English DD 5.1
    Language : English
    Default : No
    Alternate group : 1
    Encoded date : UTC 2016-05-26 09:43:27
    Tagged date : UTC 2016-05-26 09:44:09
    Fallback To : 3
    Text #1
    ID : 6
    Format : Timed Text
    Muxing mode : sbtl
    Codec ID : tx3g
    Duration : 1h 57mn
    Duration_FirstFrame : 1mn 43s
    Duration_LastFrame : 1h 55mn
    Bit rate mode : Variable
    Bit rate : 0 bps
    Stream size : 33.0 Bytes (0%)
    Title : Russian Forced
    Language : Russian
    Default : Yes
    Forced : Yes
    Alternate group : 2
    Encoded date : UTC 2016-05-26 09:43:27
    Tagged date : UTC 2016-05-26 09:43:27
    Subtitles For : 2,4
    Full Alternative : 7
    Text #2
    ID : 7
    Format : Timed Text
    Muxing mode : sbtl
    Codec ID : tx3g
    Duration : 1h 57mn
    Bit rate mode : Variable
    Bit rate : 44 bps
    Stream size : 38.4 KiB (0%)
    Title : Russian Full
    Language : Russian
    Default : No
    Forced : No
    Alternate group : 2
    Encoded date : UTC 2016-05-26 09:43:27
    Tagged date : UTC 2016-05-26 09:44:06
    Subtitles For : 2,4
    Forced Alternative : 6
    Text #3
    ID : 8
    Format : Timed Text
    Muxing mode : sbtl
    Codec ID : tx3g
    Duration : 1h 57mn
    Bit rate mode : Variable
    Bit rate : 40 bps
    Stream size : 34.1 KiB (0%)
    Title : Ukrainian Full
    Language : Ukrainian
    Default : No
    Forced : No
    Alternate group : 2
    Encoded date : UTC 2016-05-26 09:43:27
    Tagged date : UTC 2016-05-26 09:44:06
    Text #4
    ID : 9
    Format : Timed Text
    Muxing mode : sbtl
    Codec ID : tx3g
    Duration : 1h 57mn
    Bit rate mode : Variable
    Bit rate : 33 bps
    Stream size : 28.5 KiB (0%)
    Title : English Full
    Language : English
    Default : No
    Forced : No
    Alternate group : 2
    Encoded date : UTC 2016-05-26 09:43:27
    Tagged date : UTC 2016-05-26 09:44:07
    Menu #1
    00:00:00.000 : 1
    00:05:52.000 : 2
    00:13:53.000 : 3
    00:21:41.000 : 4
    00:26:31.000 : 5
    00:32:48.000 : 6
    00:38:31.000 : 7
    00:44:49.000 : 8
    00:50:45.000 : 9
    00:57:12.000 : 10
    01:03:02.000 : 11
    01:06:44.000 : 12
    01:11:44.000 : 13
    01:17:14.000 : 14
    01:24:38.000 : 15
    01:31:01.000 : 16
    01:36:54.000 : 17
    01:46:14.000 : 18
    01:53:29.000 : 19
    01:58:10.000 : 20
    Menu #2
    ID : 10
    Codec ID : text
    Duration : 2h 2mn
    Language : English
    Encoded date : UTC 2016-05-26 09:44:10
    Tagged date : UTC 2016-05-26 09:44:10
    Menu For : 1
    00:00:00.000 : 1
    00:05:52.000 : 2
    00:13:53.000 : 3
    00:21:41.000 : 4
    00:26:31.000 : 5
    00:32:48.000 : 6
    00:38:31.000 : 7
    00:44:49.000 : 8
    00:50:45.000 : 9
    00:57:12.000 : 10
    01:03:02.000 : 11
    01:06:44.000 : 12
    01:11:44.000 : 13
    01:17:14.000 : 14
    01:24:38.000 : 15
    01:31:01.000 : 16
    01:36:54.000 : 17
    01:46:14.000 : 18
    01:53:29.000 : 19
    01:58:10.000 : 20
    Bit rate mode : VBR

    Скриншоты

    -

    Релиз подготовлен для просмотра на Apple TV, iPad, iPhone, iPod Touch.
    Для просмотра данного релиза на компьютере с ОС Windows рекомендуется использовать VLC media player
    Скачать .torrent

    Скачать торрент-файл бесплатно и на максимальной скорости!

    Как скачивать? · Что такое торрент? · Рейтинг и ограничения

    !ВНИМАНИЕ!
    Сайт не распространяет и не хранит электронные версии произведений, а занимается лишь лишь предоставлением доступа к создаваемому пользователями каталогу ссылок на торрент-файлы, которые содержат только списки хеш-сумм, убедительная просьба с жалобами обращаться напрямую к пользователю. Файлы для обмена на трекере предоставлены пользователями сайта, и администрация не несёт ответственности за их содержание. Просьба не заливать файлы, защищенные авторскими правами, а также файлы нелегального содержания!


    _________________
    [Профиль] [ЛС]
    Показать сообщения:    
    Ответить на тему

    Текущее время: Сегодня, в 18:42

    Часовой пояс: GMT + 2



    Вы не можете начинать темы
    Вы не можете отвечать на сообщения
    Вы не можете редактировать свои сообщения
    Вы не можете удалять свои сообщения
    Вы не можете голосовать в опросах
    Вы не можете прикреплять файлы к сообщениям
    Вы не можете скачивать файлы