Register  ·  Log in
Forgot password?

  • Миссия в Майами / Ride Along 2 (Тим Стори / Tim Story) [2016, США, Боевик, комедия, BDRip] Dub (iTunes)

    Reply to topic
    Author Message


    Post 26-May-2016 11:12



    Миссия в Майами / Ride Along 2-Год выхода: 2016
    Выпущено: США / Cube Vision, Universal Pictures
    Жанр: боевик, комедия
    Продолжительность: 01:41:30
    Перевод: Профессиональный (полное дублирование)
    Субтитры: нет-Режиссер:
    Тим Стори / Tim Story-В ролях:
    Айс Кьюб (James Payton), Кевин Харт (Ben Barber), Тика Самптер (Angela Payton), Бенджамин Брэтт (Antonio Pope), Оливия Манн (Maya), Кен Жонг (A.J.), Брюс МакГилл (Lt. Brooks), Майкл Эдвард Роуз (The Hitter / Gates), Шерри Шеперд (Cori), Артуро дель Пуэрто (Alonso), Эрик Гойнс (Assface), Карлос Гомес (Captain Hernandez)-О фильме:
    Накануне собственной свадьбы Бен отправляется с братом своей будущей жены, крутым полицейским Джеймсом, в Майами, чтобы схватить наркодельца.-Релиз групп
    | | IMDB | КиноПоиск | Сэмпл |-Качество: BDRip [Ride.Along.2.2016.1080p.BluRay.REMUX.AVC.DTS-HD.MA.5.1-RARBG]
    Формат: AVI
    Видео: 720x304 (2.37:1), 23.976 fps, XviD build 67 ~1661 kbps avg, 0.32 bit/pixel
    Аудио: 48 kHz, AC3 Dolby Digital, 3/2 (L,C,R,l,r) + LFE ch, ~384 kbps - iTunes Russia-




    Complete name                            : D:\Missiya_v_Miami_2016_BDRip_iT_by_Dalemake.avi
    Format                                   : AVI
    Format/Info                              : Audio Video Interleave
    File size                                : 1.46 GiB
    Duration                                 : 1h 41mn
    Overall bit rate                         : 2 055 Kbps
    Writing application                      : VirtualDubMod | || (build 2550/release)
    Writing library                          : VirtualDubMod build 2550/release
    ID                                       : 0
    Format                                   : MPEG-4 Visual
    Format profile                           : Advanced Simple@L5
    Format settings, BVOP                    : 1
    Format settings, QPel                    : No
    Format settings, GMC                     : No warppoints
    Format settings, Matrix                  : Custom
    Codec ID                                 : XVID
    Codec ID/Hint                            : XviD
    Duration                                 : 1h 41mn
    Bit rate                                 : 1 662 Kbps
    Width                                    : 720 pixels
    Height                                   : 304 pixels
    Display aspect ratio                     : 2.35:1
    Frame rate                               : 23.976 (23976/1000) fps
    Color space                              : YUV
    Chroma subsampling                       : 4:2:0
    Bit depth                                : 8 bits
    Scan type                                : Progressive
    Compression mode                         : Lossy
    Bits/(Pixel*Frame)                       : 0.317
    Stream size                              : 1.18 GiB (81%)
    Writing library                          : XviD 67
    ID                                       : 1
    Format                                   : AC-3
    Format/Info                              : Audio Coding 3
    Mode extension                           : CM (complete main)
    Format settings, Endianness              : Big
    Codec ID                                 : 2000
    Duration                                 : 1h 41mn
    Bit rate mode                            : Constant
    Bit rate                                 : 384 Kbps
    Channel(s)                               : 6 channels
    Channel positions                        : Front: L C R, Side: L R, LFE
    Sampling rate                            : 48.0 KHz
    Frame rate                               : 31.250 fps (1536 spf)
    Compression mode                         : Lossy
    Delay relative to video                  : 24ms
    Stream size                              : 279 MiB (19%)
    Alignment                                : Split accross interleaves
    Interleave, duration                     : 42 ms (1.00 video frame)
    Interleave, preload duration             : 500 ms
    Download .torrent

    Download free and at maximum speed!

    How to Download? · What is a torrent? · Ratings and Limitations

    The site does not extend and does not store electronic(digital) versions of products, and only gives access to a reference catalogue created by users on torrent-files which contain only lists of the hash-sums, the earnest entreaty, with complaints(abuse) to access directly to the user. Files for an exchange on tracker are given by users of a site, and the administration does not bear the responsibility for their maintenance. The request to not fill in the files protected by copyrights, and also files of the illegal maintenance!

    [Profile] [PM]
    Display posts from previous:    
    Reply to topic

    The time now is: Today 18:48

    All times are GMT + 3 Hours

    You cannot post new topics in this forum
    You cannot reply to topics in this forum
    You cannot edit your posts in this forum
    You cannot delete your posts in this forum
    You cannot vote in polls in this forum
    You cannot attach files in this forum
    You cannot download files in this forum