BitTorrentTracker PerecTracker.org
BitTorrentTracker PerecTracker.org
    
Регистрация  ·  Вход
 
 · 
Забыли пароль?

  • По ту сторону двери / The Other Side of the Door (Йоханнес Робертс / Johannes Roberts) [2015, Индия, Великобритания, Фантастика, ужасы, мистика, WEB-DLRip] Dub Rus, Ukr + Sub Rus, Ukr, Eng + Original Eng

    Ответить на тему
     
    Автор Сообщение

    Light

    Создавать темы 26-Май-2016 10:12

           

    [Цитировать]

    По ту сторону двери / The Other Side of the Door
    Страна: Индия, Великобритания
    Жанр: Фантастика, ужасы, мистика
    Год выпуска: 2015
    Продолжительность: 01:36:01
    Перевод #1: Профессиональный (дублированный) русский (iTunes)
    Перевод #2: Профессиональный (дублированный) украинский (iTunes)
    Cубтитры: русские, украинские, английские (rus, rus.forced, ukr, eng - all subRip format) отдельно вложенные
    Оригинальная аудиодорожка: английский
    Режиссёр: Йоханнес Робертс / Johannes Roberts
    Актёры: Сара Уэйн Кэллис, Джереми Систо, София Росински, Хавьер Ботет, Логан Креран, Джакс Малкольм, Сучитра Пиллай-Малик, и др.
    Аннотация: Спокойная и размеренная жизнь молодой английской семьи за границей в Индии, прерывается внезапной трагической гибелью маленького сына... Безутешная Мария узнаёт о существовании древнего магического ритуала, который позволит на короткое время вернуть внезапно погибшего сына, с которым она не успела попрощаться... Она отправляется в заброшенный храм, где двери служат порталом между миром живых и мёртвых, и пренебрегает предупреждением не открывать их... В результате Мария подвергает свою семью тяжкой опасности, и теперь ей нужно предпринять невероятные усилия, чтобы спасти свою семью от злобного духа, который когда-то был её любимым сыном...

    Качество видео: WEB-DLRip [По.ту.сторону.двери.2016.WEB-DL.[1080p].NNMClub.mkv]
    Формат видео: AVI
    Vidеo: XviD 67 MPEG-4, 720x304 (2.35:1) 23.976 fps, ~2391 kbps avg, 0.456 bit/pixel
    Аudiо #1: AC-3 Dolby Digital, CBR 384 kbps 6 ch (Front: L C R, Side: L R, LFE) 48.0 KHz Russian
    Аudiо #2: AC-3 Dolby Digital, CBR 192 kbps 2 ch (Front: L R) 48.0 KHz Ukrainian
    Аudiо #3: AC-3 Dolby Digital, CBR 192 kbps 2 ch (Front: L R) 48.0 KHz English

    MediaInfo

    ОбщееПолное имя : S:\The_Other_Side_of_the_Door_2015_WEB-DLRip_[perectracker.org]\The_Other_Side_of_the_Door_2015_WEB-DLRip_[perectracker.org].aviФормат : AVIФормат/Информация : Audio Video InterleaveПрофиль формата : OpenDMLРазмер файла : 2,13 ГбайтПродолжительность : 1 ч. 36 м.Общий поток : 3180 Кбит/секНазвание фильма : The_Other_Side_of_the_Door_2015_WEB-DLRip_[perectracker.org]Режиссёр : OGORODNIKOFFFЖанр : Фантастика, ужасы, мистикаПрограмма кодирования : VirtualDubModRus 1.5.10.2 (build 2542/release)Формат оригинала/Имя : Фильмы 2011-2015Правообладатель : [url=profile.php?mode=viewprofile&u=38116300]http://perectracker.org/profile.php?mode=viewprofil...[/url]Примечание : Рип подготовлен 25 мая 2016 года
    ВидеоИдентификатор : 0Формат : MPEG-4 VisualПрофиль формата : Advanced Simple@L5Параметр BVOP формата : 1Параметр QPel формата : НетПараметр GMC формата : Без точки переходаПараметр матрицы формата : Default (MPEG)Идентификатор кодека : DX50Идентификатор кодека/Подсказка : DivX 5Продолжительность : 1 ч. 36 м.Битрейт : 2391 Кбит/секШирина : 720 пикселейВысота : 304 пикселяСоотношение сторон : 2,35:1Частота кадров : 23,976 кадра/секЦветовое пространство : YUVСубдискретизация насыщенности : 4:2:0Битовая глубина : 8 битТип развёртки : ПрогрессивнаяМетод сжатия : С потерямиБит/(Пиксели*Кадры) : 0.456Размер потока : 1,60 Гбайт (75%)Библиотека кодирования : XviD 67
    Аудио #1Идентификатор : 1Формат : AC-3Формат/Информация : Audio Coding 3Расширение режима : CM (complete main)Параметр Endianness формата : BigИдентификатор кодека : 2000Продолжительность : 1 ч. 35 м.Вид битрейта : ПостоянныйБитрейт : 384 Кбит/секКаналы : 6 каналовРасположение каналов : Front: L C R, Side: L R, LFEЧастота : 48,0 КГцБитовая глубина : 16 битМетод сжатия : С потерямиЗадержка видео : 12 мс.Размер потока : 263 Мбайт (12%)Выравнивание : Разделение по промежуткамПродолжительность промежутка : 42 мс. (1,00 видеокадр)Время предзагрузки промежутка : 500 мс.
    Аудио #2Идентификатор : 2Формат : AC-3Формат/Информация : Audio Coding 3Расширение режима : CM (complete main)Параметр Endianness формата : BigИдентификатор кодека : 2000Продолжительность : 1 ч. 35 м.Вид битрейта : ПостоянныйБитрейт : 192 Кбит/секКаналы : 2 каналаРасположение каналов : Front: L RЧастота : 48,0 КГцБитовая глубина : 16 битМетод сжатия : С потерямиЗадержка видео : 12 мс.Размер потока : 131 Мбайт (6%)Выравнивание : Разделение по промежуткамПродолжительность промежутка : 42 мс. (1,00 видеокадр)Время предзагрузки промежутка : 500 мс.
    Аудио #3Идентификатор : 3Формат : AC-3Формат/Информация : Audio Coding 3Расширение режима : CM (complete main)Параметр Endianness формата : BigИдентификатор кодека : 2000Продолжительность : 1 ч. 35 м.Вид битрейта : ПостоянныйБитрейт : 192 Кбит/секКаналы : 2 каналаРасположение каналов : Front: L RЧастота : 48,0 КГцБитовая глубина : 16 битМетод сжатия : С потерямиЗадержка видео : 12 мс.Размер потока : 131 Мбайт (6%)Выравнивание : Разделение по промежуткамПродолжительность промежутка : 42 мс. (1,00 видеокадр)Время предзагрузки промежутка : 500 мс.
    ОбщееПолное имя : S:\The_Other_Side_of_the_Door_2015_WEB-DLRip_[perectracker.org]\The_Other_Side_of_the_Door_2015_WEB-DLRip_[perectracker.org].eng.srtФормат : SubRipРазмер файла : 42,9 Кбайт
    ТекстФормат : SubRipМетод сжатия : Без потерь
    ОбщееПолное имя : S:\The_Other_Side_of_the_Door_2015_WEB-DLRip_[perectracker.org]\The_Other_Side_of_the_Door_2015_WEB-DLRip_[perectracker.org].rus.forced.srtФормат : SubRipРазмер файла : 199 байт
    ТекстФормат : SubRipМетод сжатия : Без потерь
    ОбщееПолное имя : S:\The_Other_Side_of_the_Door_2015_WEB-DLRip_[perectracker.org]\The_Other_Side_of_the_Door_2015_WEB-DLRip_[perectracker.org].rus.srtФормат : SubRipРазмер файла : 42,0 Кбайт
    ТекстФормат : SubRipМетод сжатия : Без потерь
    ОбщееПолное имя : S:\The_Other_Side_of_the_Door_2015_WEB-DLRip_[perectracker.org]\The_Other_Side_of_the_Door_2015_WEB-DLRip_[perectracker.org].ukr.srtФормат : SubRipРазмер файла : 41,1 Кбайт
    ТекстФормат : SubRipМетод сжатия : Без потерь

    Скриншот c названием фильма

    Скриншоты

    Время раздачи - по возможности.
    Скачать .torrent

    Скачать торрент-файл бесплатно и на максимальной скорости!

    Как скачивать? · Что такое торрент? · Рейтинг и ограничения

    !ВНИМАНИЕ!
    Сайт не распространяет и не хранит электронные версии произведений, а занимается лишь лишь предоставлением доступа к создаваемому пользователями каталогу ссылок на торрент-файлы, которые содержат только списки хеш-сумм, убедительная просьба с жалобами обращаться напрямую к пользователю. Файлы для обмена на трекере предоставлены пользователями сайта, и администрация не несёт ответственности за их содержание. Просьба не заливать файлы, защищенные авторскими правами, а также файлы нелегального содержания!


    _________________
    [Профиль] [ЛС]
    Показать сообщения:    
    Ответить на тему

    Текущее время: Сегодня, в 10:30

    Часовой пояс: GMT + 2



    Вы не можете начинать темы
    Вы не можете отвечать на сообщения
    Вы не можете редактировать свои сообщения
    Вы не можете удалять свои сообщения
    Вы не можете голосовать в опросах
    Вы не можете прикреплять файлы к сообщениям
    Вы не можете скачивать файлы