BitTorrentTracker PerecTracker.org
BitTorrentTracker PerecTracker.org
    
Регистрация  ·  Вход
 
 · 
Забыли пароль?

  • Лазурный берег / By the Sea (Анджелина Джоли / Angelina Jolie) [2015, США, Франция, Драма, мелодрама, WEB-DLRip] Dub (iTunes)

    Ответить на тему
     
    Автор Сообщение

    Light

    Создавать темы 26-Май-2016 10:12

           

    [Цитировать]

    Лазурный берег / By the Sea-Страна: США, Франция
    Жанр: Драма, мелодрама
    Год выпуска: 2015
    Продолжительность: 02:02:23-Перевод: Профессиональный (дублированный) - iTunes
    Cубтитры: нет-Режиссер: Анджелина Джоли / Angelina Jolie-В ролях: Брэд Питт, Анджелина Джоли, Мелани Лоран, Мельвиль Пупо, Нильс Ареструп, Ришар Боренже, Марика Грин, Сара Науди, Альдо Бонтемпо, Филипп Мартине-Описание: Франция. Середина 1970-х. Ванесса, бывшая танцовщица, и ее муж Роланд, американский писатель, путешествуют вместе по стране. Понемногу они начинают отдаляться друг от друга, но все меняется, когда они задерживаются в одном тихом приморском городке…
    Сэмпл: http://multi-up.com/1103088
    Качество видео: WEB-DLRip
    Формат видео: AVI
    Видео: 720x304 (2.35:1), 23.976 fps, XviD, 1308 Kbps, 0.24 bit/pixel
    Аудио: 48 kHz, AC3 Dolby Digital, 3/2 (L,C,R,l,r) + LFE ch, 384 kbps

    MediaInfo

    General
    Complete name : Downloads\La3yPH1y.Bepeg.2016.D.WEB-DLRip.1.46GB.avi
    Format : AVI
    Format/Info : Audio Video Interleave
    File size : 1.45 GiB
    Duration : 2h 2mn
    Overall bit rate : 1 701 Kbps
    Writing application : VirtualDubMod 1.5.10.2 (build 2540/release)
    Writing library : VirtualDubMod build 2540/release
    Video #0
    ID : 0
    Format : MPEG-4 Visual
    Format profile : Advanced Simple@L5
    Format settings, BVOP : 2
    Format settings, QPel : No
    Format settings, GMC : No warppoints
    Format settings, Matrix : Default (MPEG)
    Codec ID : XVID
    Codec ID/Hint : XviD
    Duration : 2h 2mn
    Bit rate : 1 308 Kbps
    Width : 720 pixels
    Height : 304 pixels
    Display aspect ratio : 2.35:1
    Frame rate : 23.976 fps
    Color space : YUV
    Chroma subsampling : 4:2:0
    Bit depth : 8 bits
    Scan type : Progressive
    Compression mode : Lossy
    Bits/(Pixel*Frame) : 0.249
    Stream size : 1.12 GiB (77%)
    Writing library : XviD 1.2.1 (UTC 2008-12-04)
    Audio #1
    ID : 1
    Format : AC-3
    Format/Info : Audio Coding 3
    Mode extension : CM (complete main)
    Format settings, Endianness : Big
    Codec ID : 2000
    Duration : 2h 2mn
    Bit rate mode : Constant
    Bit rate : 384 Kbps
    Channel(s) : 6 channels
    Channel positions : Front: L C R, Side: L R, LFE
    Sampling rate : 48.0 KHz
    Bit depth : 16 bits
    Compression mode : Lossy
    Stream size : 336 MiB (23%)
    Alignment : Split accross interleaves
    Interleave, duration : 42 ms (1.00 video frame)
    Interleave, preload duration : 500 ms

    Скриншот c названием фильма

    Скриншоты

    Скачать .torrent

    Скачать торрент-файл бесплатно и на максимальной скорости!

    Как скачивать? · Что такое торрент? · Рейтинг и ограничения

    !ВНИМАНИЕ!
    Сайт не распространяет и не хранит электронные версии произведений, а занимается лишь лишь предоставлением доступа к создаваемому пользователями каталогу ссылок на торрент-файлы, которые содержат только списки хеш-сумм, убедительная просьба с жалобами обращаться напрямую к пользователю. Файлы для обмена на трекере предоставлены пользователями сайта, и администрация не несёт ответственности за их содержание. Просьба не заливать файлы, защищенные авторскими правами, а также файлы нелегального содержания!


    _________________
    [Профиль] [ЛС]
    Показать сообщения:    
    Ответить на тему

    Текущее время: Сегодня, в 06:16

    Часовой пояс: GMT + 2



    Вы не можете начинать темы
    Вы не можете отвечать на сообщения
    Вы не можете редактировать свои сообщения
    Вы не можете удалять свои сообщения
    Вы не можете голосовать в опросах
    Вы не можете прикреплять файлы к сообщениям
    Вы не можете скачивать файлы