BitTorrentTracker PerecTracker.org
BitTorrentTracker PerecTracker.org
    
Регистрация  ·  Вход
 
 · 
Забыли пароль?

  • Братья из Гримсби / Grimsby / The Brothers Grimsby (Луи Летерье / Louis Leterrier) [2016, Великобритания, Боевик, комедия, WEB-DLRip] Dub (Line) + Original (Eng)

    Ответить на тему
     
    Автор Сообщение

    rechyn

    Создавать темы 26-Май-2016 01:54

           

    [Цитировать]

    Братья из Гримсби / Grimsby / The Brothers Grimsby
    «Один секретный агент. Один полный идиот»
    -Год выхода: 2016
    Выпущено: Великобритания, Австралия / Columbia Pictures
    Жанр: боевик, комедия
    Продолжительность: 01:23:25
    Перевод: Профессиональный (полное дублирование) Line
    Субтитры: нет
    Оригинальная аудиодорожка: Английская-Режиссер:
    Луи Летерье / Louis Leterrier-В ролях:
    Саша Барон Коэн, Марк Стронг, Ребел Уилсон, Пенелопа Крус, Айла Фишер, Скотт Эдкинс, Иэн МакШейн, Габури Сидибе, Аннабелль Уоллис, Дэвид Хэрвуд, Рикки Томлинсон, Джонни Вегас, Сэм Хэзелдайн, Фредди Краудер, Джон-Джон Локвуд, Шон Томас, Клаудия Эдшид, Лекс Шрэпнел-О фильме:
    Сверхсекретная операция, которую выполняет образцовый спецагент, с треском провалена из-за некстати свалившегося на его голову неадекватного брата — оголтелого футбольного фаната и полного беспредельщика. Теперь герою предстоит спасти свою жизнь и вдобавок планету от нависшей над ней угрозы — практически невыполнимая задача в тандеме с вновь приобретенным родственником.-| Сэмпл |-Качество: WEB-DLRip [The Brothers Grimsby 2016 1080p WEB-DL DD5 1 H264-RARBG]
    Формат: AVI
    Видео: 720x304 (2.37:1), 23.976 fps, XviD build 67 ~2107 kbps avg, 0.40 bit/pixel
    Аудио #1: 48 kHz, AC3 Dolby Digital, 2/0 (L,R) ch, ~192 kbps avg (RUS)
    Аудио #2: 48 kHz, AC3 Dolby Digital, 2/0 (L,R) ch, ~192 kbps avg (ENG)
    --

    Скриншоты

    -

    MediaInfo

    General
    Complete name                            : D:\Brat`ya_iz_Grimsbi_2016_WEB-DLRip_Line_by_Dalemake.avi
    Format                                   : AVI
    Format/Info                              : Audio Video Interleave
    File size                                : 1.46 GiB
    Duration                                 : 1h 23mn
    Overall bit rate                         : 2 506 Kbps
    Writing application                      : VirtualDubMod 1.5.10.3 | www.virtualdub-fr.org || (build 2550/release)
    Writing library                          : VirtualDubMod build 2550/release
    Video
    ID                                       : 0
    Format                                   : MPEG-4 Visual
    Format profile                           : Advanced Simple@L5
    Format settings, BVOP                    : 1
    Format settings, QPel                    : No
    Format settings, GMC                     : No warppoints
    Format settings, Matrix                  : Custom
    Codec ID                                 : XVID
    Codec ID/Hint                            : XviD
    Duration                                 : 1h 23mn
    Bit rate                                 : 2 108 Kbps
    Width                                    : 720 pixels
    Height                                   : 304 pixels
    Display aspect ratio                     : 2.35:1
    Frame rate                               : 23.976 (23976/1000) fps
    Color space                              : YUV
    Chroma subsampling                       : 4:2:0
    Bit depth                                : 8 bits
    Scan type                                : Progressive
    Compression mode                         : Lossy
    Bits/(Pixel*Frame)                       : 0.402
    Stream size                              : 1.23 GiB (84%)
    Writing library                          : XviD 67
    Audio #1
    ID                                       : 1
    Format                                   : AC-3
    Format/Info                              : Audio Coding 3
    Mode extension                           : CM (complete main)
    Format settings, Endianness              : Big
    Codec ID                                 : 2000
    Duration                                 : 1h 23mn
    Bit rate mode                            : Constant
    Bit rate                                 : 192 Kbps
    Channel(s)                               : 2 channels
    Channel positions                        : Front: L R
    Sampling rate                            : 48.0 KHz
    Frame rate                               : 31.250 fps (1536 spf)
    Compression mode                         : Lossy
    Stream size                              : 115 MiB (8%)
    Alignment                                : Split accross interleaves
    Interleave, duration                     : 42 ms (1.00 video frame)
    Interleave, preload duration             : 500 ms
    Audio #2
    ID                                       : 2
    Format                                   : AC-3
    Format/Info                              : Audio Coding 3
    Mode extension                           : CM (complete main)
    Format settings, Endianness              : Big
    Codec ID                                 : 2000
    Duration                                 : 1h 23mn
    Bit rate mode                            : Constant
    Bit rate                                 : 192 Kbps
    Channel(s)                               : 2 channels
    Channel positions                        : Front: L R
    Sampling rate                            : 48.0 KHz
    Frame rate                               : 31.250 fps (1536 spf)
    Compression mode                         : Lossy
    Stream size                              : 114 MiB (8%)
    Alignment                                : Split accross interleaves
    Interleave, duration                     : 42 ms (1.00 video frame)
    Interleave, preload duration             : 500 ms

    Сравнение

    http://perectracker.org/http://perectracker.org/viewtopic.php?t=5230923
    http://screenshotcomparison.com/comparison/173918
    + звук #
    + MediaInfo не соответствует тех. данным
    С появлением лучшего звука рип будет перезалит-
    Скачать .torrent

    Скачать торрент-файл бесплатно и на максимальной скорости!

    Как скачивать? · Что такое торрент? · Рейтинг и ограничения

    !ВНИМАНИЕ!
    Сайт не распространяет и не хранит электронные версии произведений, а занимается лишь лишь предоставлением доступа к создаваемому пользователями каталогу ссылок на торрент-файлы, которые содержат только списки хеш-сумм, убедительная просьба с жалобами обращаться напрямую к пользователю. Файлы для обмена на трекере предоставлены пользователями сайта, и администрация не несёт ответственности за их содержание. Просьба не заливать файлы, защищенные авторскими правами, а также файлы нелегального содержания!


    _________________
    [Профиль] [ЛС]
    Показать сообщения:    
    Ответить на тему

    Текущее время: Сегодня, в 12:30

    Часовой пояс: GMT + 2



    Вы не можете начинать темы
    Вы не можете отвечать на сообщения
    Вы не можете редактировать свои сообщения
    Вы не можете удалять свои сообщения
    Вы не можете голосовать в опросах
    Вы не можете прикреплять файлы к сообщениям
    Вы не можете скачивать файлы