BitTorrentTracker PerecTracker.org
BitTorrentTracker PerecTracker.org
    
Регистрация  ·  Вход
 
 · 
Забыли пароль?

  • Погоня в Сьерра-Мадре / Сдавайся и Расплатись / День Расплаты / La Resa dei conti / Der Gehetzte der Sierra Madre / The Big Gundown (Серджо Соллима / Sergio Sollima) [1966, Италия, Испания, вестерн, DVDRip] VO (Орбита) + Original Ita + Sub Rus, Eng

    Ответить на тему
     
    Автор Сообщение

    Columb

    Создавать темы 18-Фев-2014 20:54

           

    [Цитировать]

    Погоня в Сьерра-Мадре
    Der Gehetzte der Sierra Madre

    Страна: Италия, Испания
    Жанр: вестерн
    Год выпуска: 1966
    Продолжительность: 01:45:51
    Перевод: Одноголосый закадровый студии "Орбита"
    Cубтитры: русские (к утратам перевода) от sasikainen, английские, немецкие
    Оригинальная аудиодорожка: итальянский
    Режиссер: Серджо Соллима / Sergio Sollima
    В ролях: Ли Ван Клиф / Lee Van Cleef... Jonathan «Colorado» Corbett
    Томас Милиан / Tomas Milian... Manuel «Cuchillo» Sanchez
    Луиза Ривелли / Luisa Rivelli... Lizzie, prostitute of Willow Creek City
    Фернандо Санчо / Fernando Sancho... Capt. Segura
    Ниевес Наварро / Nieves Navarro... The widow
    Роберто Камардьель / Roberto Camardiel... Jellicol, sheriff of San Antonio
    Том Феллеги / Tom Felleghy... Father of Chet Miller
    Уолтер Барнс / Walter Barnes... Brokston
    Жерар Хертер / Gérard Herter... Baron von Schulenberg
    Описание: Лучший стрелок Техаса, знаменитый охотник за головами Джонатан Корбетт решает отойти от дел и баллотироваться в Сенат. Местная элита, в лице магната Брокстона и австрийского барона Фон Шуленберга обещает ему всестороннюю поддержку в обмен на помощь со строительством железной дороги, ведущей в Мексику. Однако перед этим Корбетту поручают последнее задание — найти того, кто изнасиловал и убил двенадцатилетнюю девочку.
    ИЗ СЕРИИ ЛЮБИМЫЕ ПЕРЕВОДЫ
    Доп. информация: - итальянский и английский с рипа из cinemageddon
    - тк перевод "Орбиты" с урезанной цензурой немецкой версии, утраченные места восполнил русскими субтитрами
    Замечание к переводу: Авторский перевод выполнен с немецкой версии, при создании субтитров пользовался английскими субтитрами и итальянской версией. Оказалось, как всегда при переводе европейских фильмов американцами, переписаны диалоги, добавлены реплики и даже реплики приписаны другим героям. В помощи при восстановлении истины благодарю Фабио Мастранджело
    Качество видео: DVDRip >>Сэмпл
    Формат видео: AVI
    Видео: 720x304 (2.37:1), 25 fps, XviD build 50 ~1510 kbps avg, 0.28 bit/pixel - исходник от Lucian666
    Аудио 1: 48 kHz, AC3 Dolby Digital, 2/0 (L,R) ch, ~224 kbps - перевод "Орбиты" оцифрован и синхронизирован мной с коллекционной VHS
    Аудио 2: 48 kHz, AC3 Dolby Digital, 2/0 (L,R) ch, ~192 kbps - italiano
    Аудио 3: 48 kHz, AC3 Dolby Digital, 2/0 (L,R) ch, ~192 kbps - english (отдельно)
    Аудио 4: 48 kHz, AC3 Dolby Digital, 2/0 (L,R) ch, ~192 kbps - german (отдельно)

    MediaInfo

    Формат : AVI
    Формат/Информация : Audio Video Interleave
    Размер файла : 1,44 Гбайт
    Продолжительность : 1 ч. 45 м.
    Общий поток : 1942 Кбит/сек
    Название фильма : Der Gehetzte der Sierra Madre (1966)
    Программа кодирования : VirtualDubMod 1.5.10.3 | www.virtualdub-fr.org || (build 2550/release)
    Библиотека кодирования : VirtualDubMod build 2550/release
    Правообладатель : sasikainen
    Видео
    Идентификатор : 0
    Формат : MPEG-4 Visual
    Профиль формата : Advanced Simple@L5
    Параметр BVOP формата : 1
    Параметр QPel формата : Нет
    Параметр GMC формата : Без точки перехода
    Параметр матрицы формата : Default (H.263)
    Идентификатор кодека : XVID
    Идентификатор кодека/Подсказка : XviD
    Продолжительность : 1 ч. 45 м.
    Битрейт : 1512 Кбит/сек
    Ширина : 720 пикселей
    Высота : 304 пикселя
    Соотношение сторон : 2,35:1
    Частота кадров : 25,000 кадров/сек
    Цветовое пространство : YUV
    Субдискретизация насыщенности : 4:2:0
    Битовая глубина : 8 бит
    Тип развёртки : Прогрессивная
    Метод сжатия : С потерями
    Бит/(Пиксели*Кадры) : 0.276
    Размер потока : 1,12 Гбайт (78%)
    Библиотека кодирования : XviD 1.2.1 (UTC 2008-12-04)
    Аудио #1
    Идентификатор : 1
    Формат : AC-3
    Формат/Информация : Audio Coding 3
    Расширение режима : CM (complete main)
    Параметр Endianness формата : Big
    Идентификатор кодека : 2000
    Продолжительность : 1 ч. 45 м.
    Вид битрейта : Постоянный
    Битрейт : 224 Кбит/сек
    Каналы : 2 канала
    Расположение каналов : Front: L R
    Частота : 48,0 КГц
    Битовая глубина : 16 бит
    Метод сжатия : С потерями
    Размер потока : 170 Мбайт (12%)
    Выравнивание : Разделение по промежуткам
    Продолжительность промежутка : 40 мс. (1,00 видеокадр)
    Время предзагрузки промежутка : 500 мс.
    Заголовок : russian
    Аудио #2
    Идентификатор : 2
    Формат : AC-3
    Формат/Информация : Audio Coding 3
    Расширение режима : CM (complete main)
    Параметр Endianness формата : Big
    Идентификатор кодека : 2000
    Продолжительность : 1 ч. 45 м.
    Вид битрейта : Постоянный
    Битрейт : 192 Кбит/сек
    Каналы : 2 канала
    Расположение каналов : Front: L R
    Частота : 48,0 КГц
    Битовая глубина : 16 бит
    Метод сжатия : С потерями
    Размер потока : 145 Мбайт (10%)
    Выравнивание : Разделение по промежуткам
    Продолжительность промежутка : 40 мс. (1,00 видеокадр)
    Время предзагрузки промежутка : 500 мс.
    Заголовок : italiano

    Скриншоты

    Скачать .torrent

    Скачать торрент-файл бесплатно и на максимальной скорости!

    Как скачивать? · Что такое торрент? · Рейтинг и ограничения

    !ВНИМАНИЕ!
    Сайт не распространяет и не хранит электронные версии произведений, а занимается лишь лишь предоставлением доступа к создаваемому пользователями каталогу ссылок на торрент-файлы, которые содержат только списки хеш-сумм, убедительная просьба с жалобами обращаться напрямую к пользователю. Файлы для обмена на трекере предоставлены пользователями сайта, и администрация не несёт ответственности за их содержание. Просьба не заливать файлы, защищенные авторскими правами, а также файлы нелегального содержания!

    [Профиль] [ЛС]
    Показать сообщения:    
    Ответить на тему

    Текущее время: Сегодня, в 19:29

    Часовой пояс: GMT + 2



    Вы не можете начинать темы
    Вы не можете отвечать на сообщения
    Вы не можете редактировать свои сообщения
    Вы не можете удалять свои сообщения
    Вы не можете голосовать в опросах
    Вы не можете прикреплять файлы к сообщениям
    Вы не можете скачивать файлы