BitTorrentTracker PerecTracker.org
BitTorrentTracker PerecTracker.org
    
Регистрация  ·  Вход
 
 · 
Забыли пароль?

  • Человек тьмы III. Умри, Человек тьмы / Darkman III: Die Darkman Die (Брэдфорд Мэй / Bradford May) [1996, США, ужасы, фантастика, боевик, BDRemux 1080p] MVO + Sub Eng + Original Eng

    Ответить на тему
     
    Автор Сообщение

    Light

    Создавать темы 25-Май-2016 21:45

           

    [Цитировать]

    -Человек тьмы III. Умри, Человек тьмы / Darkman III: Die Darkman Die-Страна: США
    Жанр: ужасы, фантастика, боевик
    Год выпуска: 1996
    Продолжительность: 01:26:54-Перевод: Профессиональный (многоголосый закадровый)
    Cубтитры: английские
    Оригинальная аудиодорожка: английский-Режиссер: Брэдфорд Мэй / Bradford May
    В ролях: Джефф Фэйи, Арнольд Вослу, Дарлэнн Флюгел, Роксанн Доусон, Найджел Беннетт, Алисия Панетта, Ронн Саросьяк, Питер Грэхэм, Шон Дойл, Вьеслав Кристиан-Описание: Когда-то давно доктор Уэстлэйк был обезображен гангстерами и превратился в неуловимого мастера маскировки, отважного мстителя — «Человека Тьмы». В этот раз Человеку Тьмы снова противостоит опасный и сильный противник — безжалостный преступник Питер Рукер.
    Коварный злодей хочет найти таинственный источник сверхъестественной силы героя и устраивает ему ловушку. Оказавшись в западне, Человек Тьмы вступает в свой последний и самый отчаянный бой с бандой Рукера, бой кровавый и жестокий…-Сэмпл-Тип релиза: BDRemux 1080p
    Контейнер: MKV
    Видео: MPEG-4 AVC Video / 21998 kbps / 1080p / 23,976 fps / 16:9 / High Profile 4.1
    Аудио: Russian / Dolby Digital Audio / 2.0 / 48 kHz / 192 kbps
    Аудио 2: English / DTS-HD Master Audio / 2.0 / 48 kHz / 1673 kbps / 24-bit (DTS Core: 2.0 / 48 kHz / 1509 kbps / 24-bit)
    Аудио 3: Ukrainian / Dolby Digital Audio / 2.0 / 48 kHz / 192 kbps
    Формат субтитров: softsub (SRT)

    MI

    GeneralUnique ID : 239391431608520557349413450548848640121 (0xB4191CD70DBA440EB5EDF673C5C44079)Complete name : S:\На хранении\Человек Тьмы 3. Умри Человек Тьмы (1996. Darkman III. Die Darkman Die).mkvFormat : MatroskaFormat version : Version 4 / Version 2File size : 14.6 GiBDuration : 1h 26mnOverall bit rate mode : VariableOverall bit rate : 24.1 MbpsMovie name : Release for RuTracker & HDClubEncoded date : UTC 2016-05-24 00:11:35Writing application : mkvmerge v9.0.1 ('Obstacles') 64bitWriting library : libebml v1.3.3 + libmatroska v1.4.4Cover : YesAttachments : cover.jpg
    VideoID : 1Format : AVCFormat/Info : Advanced Video CodecFormat profile : High@L4.1Format settings, CABAC : YesFormat settings, ReFrames : 3 framesCodec ID : V_MPEG4/ISO/AVCDuration : 1h 26mnBit rate mode : VariableBit rate : 22.0 MbpsMaximum bit rate : 30.0 MbpsWidth : 1 920 pixelsHeight : 1 080 pixelsDisplay aspect ratio : 16:9Frame rate mode : ConstantFrame rate : 23.976 (24000/1001) fpsStandard : NTSCColor space : YUVChroma subsampling : 4:2:0Bit depth : 8 bitsScan type : ProgressiveBits/(Pixel*Frame) : 0.442Stream size : 13.4 GiB (91%)Title : Darkman III Die Darkman Die 1996 1080p NOR Blu-ray AVC DTS-HD MA 2.0-HDMikeLanguage : EnglishDefault : YesForced : NoColor range : LimitedColor primaries : BT.709Transfer characteristics : BT.709Matrix coefficients : BT.709
    Audio #1ID : 2Format : AC-3Format/Info : Audio Coding 3Mode extension : CM (complete main)Format settings, Endianness : BigCodec ID : A_AC3Duration : 1h 26mnBit rate mode : ConstantBit rate : 192 KbpsChannel(s) : 2 channelsChannel positions : Front: L RSampling rate : 48.0 KHzFrame rate : 31.250 fps (1536 spf)Compression mode : LossyStream size : 119 MiB (1%)Title : MVOLanguage : RussianDefault : YesForced : No
    Audio #2ID : 3Format : DTSFormat/Info : Digital Theater SystemsFormat profile : MA / CoreMode : 16Format settings, Endianness : BigCodec ID : A_DTSDuration : 1h 26mnBit rate mode : Variable / ConstantBit rate : 1 673 Kbps / 1 509 KbpsChannel(s) : 2 channelsChannel positions : Front: L RSampling rate : 48.0 KHzFrame rate : 93.750 fps (512 spf)Bit depth : 24 bitsCompression mode : Lossless / LossyStream size : 1.02 GiB (7%)Language : EnglishDefault : NoForced : No
    Audio #3ID : 4Format : AC-3Format/Info : Audio Coding 3Mode extension : CM (complete main)Format settings, Endianness : BigCodec ID : A_AC3Duration : 1h 26mnBit rate mode : ConstantBit rate : 192 KbpsChannel(s) : 2 channelsChannel positions : Front: L RSampling rate : 48.0 KHzFrame rate : 31.250 fps (1536 spf)Compression mode : LossyStream size : 119 MiB (1%)Language : UkrainianDefault : NoForced : No
    TextID : 5Format : UTF-8Codec ID : S_TEXT/UTF8Codec ID/Info : UTF-8 Plain TextDuration : 1h 23mnBit rate : 43 bpsCount of elements : 806Stream size : 26.5 KiB (0%)Language : EnglishDefault : NoForced : No
    Menu00:00:00.000 : en:00:00:00.00000:09:59.974 : en:00:09:59.97400:20:15.005 : en:00:20:15.00500:29:38.944 : en:00:29:38.94400:40:24.005 : en:00:40:24.00500:50:03.959 : en:00:50:03.95901:00:40.011 : en:01:00:40.01101:09:53.940 : en:01:09:53.94001:19:59.920 : en:01:19:59.92001:23:50.943 : en:01:23:50.943
    Скриншоты

    Зеркало

    Цитата:
    Цитата:

    • Релиз Spiellberg и
    • Сохранены оригинальные главы как на Blu-ray.
    Скачать .torrent

    Скачать торрент-файл бесплатно и на максимальной скорости!

    Как скачивать? · Что такое торрент? · Рейтинг и ограничения

    !ВНИМАНИЕ!
    Сайт не распространяет и не хранит электронные версии произведений, а занимается лишь лишь предоставлением доступа к создаваемому пользователями каталогу ссылок на торрент-файлы, которые содержат только списки хеш-сумм, убедительная просьба с жалобами обращаться напрямую к пользователю. Файлы для обмена на трекере предоставлены пользователями сайта, и администрация не несёт ответственности за их содержание. Просьба не заливать файлы, защищенные авторскими правами, а также файлы нелегального содержания!


    _________________
    [Профиль] [ЛС]
    Показать сообщения:    
    Ответить на тему

    Текущее время: Сегодня, в 06:41

    Часовой пояс: GMT + 2



    Вы не можете начинать темы
    Вы не можете отвечать на сообщения
    Вы не можете редактировать свои сообщения
    Вы не можете удалять свои сообщения
    Вы не можете голосовать в опросах
    Вы не можете прикреплять файлы к сообщениям
    Вы не можете скачивать файлы