BitTorrentTracker PerecTracker.org
BitTorrentTracker PerecTracker.org
    
Регистрация  ·  Вход
 
 · 
Забыли пароль?

  • [ATV3] Гордость и предубеждение и зомби / Pride and Prejudice and Zombies (Бёрр Стирс / Burr Steers ) [2015, США, Великобритания , Ужасы, боевик, мелодрама, BDRip, HD (1080p)] DUB + Original + sub (eng)

    Ответить на тему
     
    Автор Сообщение

    rechyn

    Создавать темы 25-Май-2016 21:45

           

    [Цитировать]

    Гордость и предубеждение и зомби / Pride and Prejudice and Zombies
    «'It is a truth universally acknowledged that a zombie in possession of brains must be in want of more brains.' - Jane Austen and Seth Grahame-Smith»
    5.808 / 10 6.00 / 10
    -Год выпуска: 2015
    Страна: США, Великобритания
    Жанр: Ужасы, боевик, мелодрама
    Продолжительность: 01:47:32
    Перевод: Дублированный (Централ Партнершип)
    Оригинальная аудиодорожка: Есть
    Cубтитры: Английские форсированные, Английские
    Режиссёр: Бёрр Стирс
    Сценарий: Бёрр Стирс, Джейн Остин, Сет Грэм-Смит
    Продюсер: Марк Бутан, Шон МакКиттрик, Брайан Оливер
    Оператор: Реми Адефаразин
    Композитор: Фернандо Веласкес
    Художник: Дэвид Уоррен, Стив Картер, Уилл Кубро
    Монтаж: Падрейк МакКинли
    В ролях: Лили Джеймс, Сэм Райли, Белла Хиткот, Элли Бамбер, Милли Брэйди, Сьюки Уотерхаус, Дуглас Бут, Сэлли Филлипс, Чарльз Дэнс, Джек Хьюстон
    Бюджет: $28 000 000
    Сборы в США: $10 907 291
    Сборы в мире: + $5 467 037 = $16 374 328
    Сборы в России: $528 022
    Мировая премьера: 21 января 2016
    Премьера (РФ): 18 февраля 2016, «Централ Партнершип»
    Описание: Англия, XIX век. Элизабет Беннет и её сестры вынуждены противостоять заполонившим Англию ходячим мертвецам, а так же девушки сталкиваются с давлением необходимости найти себе мужей.-Качество исходника: BDRemux (HDClub)
    Качество: BDRip
    Тип: HD (1080p)
    Контейнер: M4V
    Видео: H.264, 1920x800, 2.40:1, 8 000 Kbps, 23.976 (24000/1001) fps
    Аудио 1: Русский/Дублированный (Централ Партнершип), AAC / 2.0 / 157 Kbps / 48.0 KHz
    Аудио 2: Английский/Оригинальная дорожка , AAC / 2.0 / 158 Kbps / 48.0 KHz
    Аудио 3: Русский/Дублированный (Централ Партнершип), AC-3 / 5.1 / 640 Kbps / 48.0 KHz
    Аудио 4: Английский/Оригинальная дорожка , AC-3 / 5.1 / 640 Kbps / 48.0 KHz
    Субтитры 1: Английские форсированные
    Субтитры 2: Английские полные
    -

    iTunes Meta Tags

    Sort Name: Pride & Prejudice & Zombies
    XID: Apple:vendor_id:2015-491816
    contentID: 1071477183
    Copyright: 2016 CCP PPZ Film Holdings, LLC in the United States of America and the territories, possessions and protectorates of the USA, and © 2016 PPZ Film Holdings, LLC elsewhere. All Rights Reserved.
    Screenwriters: Бёрр Стирс, Джейн Остин, Сет Грэм-Смит
    Producers: Марк Бутан, Шон МакКиттрик, Брайан Оливер
    Director: Бёрр Стирс
    Cast: Лили Джеймс, Сэм Райли, Белла Хиткот, Элли Бамбер, Милли Брэйди, Сьюки Уотерхаус, Дуглас Бут, Сэлли Филлипс, Чарльз Дэнс, Джек Хьюстон, Евгения Ваган, Сергей Смирнов, Лина Иванова, Мария Борисова, Станислав Тикунов
    Studio: Screen Gems
    Rating: 4
    Long Description: Англия, XIX век. Элизабет Беннет и её сестры вынуждены противостоять заполонившим Англию ходячим мертвецам, а так же девушки сталкиваются с давлением необходимости найти себе мужей.
    Description: Англия, XIX век. Элизабет Беннет и её сестры вынуждены противостоять заполонившим Англию ходячим мертвецам, а так же девушки сталкиваются с давлением необходимости найти себе мужей.
    Release Date: 2016-01-21T08:00:00Z
    Genre: Comedy
    Artist: Burr Steers
    Name: Pride & Prejudice & Zombies

    MediaInfo

    General
    Complete name : /Users/imac/HandBrake/Pride and Prejudice and Zombies (1080p HD).m4v
    Format : MPEG-4
    Codec ID : M4V  (M4V /M4A /mp42/isom)
    File size : 7.20 GiB
    Duration : 1h 47mn
    Overall bit rate mode : Variable
    Overall bit rate : 9 591 Kbps
    Movie name : Pride & Prejudice & Zombies
    Performer : Burr Steers
    Director : Бёрр Стирс
    Actor : Лили Джеймс / Сэм Райли / Белла Хиткот / Элли Бамбер / Милли Брэйди / Сьюки Уотерхаус / Дуглас Бут / Сэлли Филлипс / Чарльз Дэнс / Джек Хьюстон / Евгения Ваган / Сергей Смирнов / Лина Иванова / Мария Борисова / Станислав Тикунов
    Screenplay by : Бёрр Стирс / Джейн Остин / Сет Грэм-Смит
    Producer : Марк Бутан / Шон МакКиттрик / Брайан Оливер
    Production studio : Screen Gems
    Genre : Comedy
    ContentType : Short Film
    Description : Англия, XIX век. Элизабет Беннет и её сестры вынуждены противостоять заполонившим Англию ходячим мертвецам, а так же девушки сталкиваются с давлением необходимости найти себе мужей.
    Recorded date : UTC 2016-01-21 08:00:00
    Encoded date : UTC 2016-05-25 11:50:54
    Tagged date : UTC 2016-05-25 11:54:03
    Copyright : 2016 CCP PPZ Film Holdings, LLC in the United States of America and the territories, possessions and protectorates of the USA, and © 2016 PPZ Film Holdings, LLC elsewhere. All Rights Reserved.
    Cover : Yes
    Rating : None
    Title/Sort : Pride & Prejudice & Zombies
    LongDescription : Англия, XIX век. Элизабет Беннет и её сестры вынуждены противостоять заполонившим Англию ходячим мертвецам, а так же девушки сталкиваются с давлением необходимости найти себе мужей.
    AppleStoreCatalogID : 1071477183
    Vendor : Apple:vendor_id:2015-491816
    ContentRating : mpaa|PG-13|300|
    Video #1
    ID : 1
    Format : AVC
    Format/Info : Advanced Video Codec
    Format profile : High@L4
    Format settings, CABAC : Yes
    Format settings, ReFrames : 4 frames
    Codec ID : avc1
    Codec ID/Info : Advanced Video Coding
    Duration : 1h 47mn
    Source duration : 1h 47mn
    Bit rate : 8 000 Kbps
    Width : 1 920 pixels
    Height : 800 pixels
    Display aspect ratio : 2.40:1
    Frame rate mode : Variable
    Frame rate : 23.976 (24000/1001) fps
    Minimum frame rate : 23.974 fps
    Maximum frame rate : 23.981 fps
    Color space : YUV
    Chroma subsampling : 4:2:0
    Bit depth : 8 bits
    Scan type : Progressive
    Bits/(Pixel*Frame) : 0.217
    Stream size : 6.00 GiB (83%)
    Source stream size : 6.00 GiB (83%)
    Title : Main Program
    Writing library : x264 core 142 r2479 dd79a61
    Encoding settings : cabac=1 / ref=4 / deblock=1:-2:-2 / analyse=0x3:0x133 / me=umh / subme=10 / psy=1 / psy_rd=1.00:0.15 / mixed_ref=1 / me_range=32 / chroma_me=1 / trellis=2 / 8x8dct=1 / cqm=0 / deadzone=21,11 / fast_pskip=0 / chroma_qp_offset=-3 / threads=36 / lookahead_threads=6 / sliced_threads=0 / nr=0 / decimate=0 / interlaced=0 / bluray_compat=0 / constrained_intra=0 / bframes=16 / b_pyramid=2 / b_adapt=2 / b_bias=0 / direct=3 / weightb=1 / open_gop=0 / weightp=2 / keyint=240 / keyint_min=24 / scenecut=40 / intra_refresh=0 / rc_lookahead=60 / rc=2pass / mbtree=1 / bitrate=8000 / ratetol=1.0 / qcomp=0.70 / qpmin=0 / qpmax=69 / qpstep=4 / cplxblur=20.0 / qblur=0.5 / vbv_maxrate=25000 / vbv_bufsize=25000 / nal_hrd=none / filler=0 / ip_ratio=1.40 / aq=1:1.00
    Language : English
    Encoded date : UTC 2016-05-25 11:50:54
    Tagged date : UTC 2016-05-25 11:51:17
    Color range : Limited
    Color primaries : BT.709
    Transfer characteristics : BT.709
    Matrix coefficients : BT.709
    Menus : 8,9
    Video #2
    ID : 9
    Format : JPEG
    Codec ID : jpeg
    Duration : 1h 47mn
    Bit rate mode : Variable
    Bit rate : 569 bps
    Width : 640 pixels
    Height : 266 pixels
    Display aspect ratio : 2.40:1
    Frame rate mode : Variable
    Frame rate : 0.002 fps
    Minimum frame rate : 0.001 fps
    Maximum frame rate : 0.003 fps
    Color space : YUV
    Chroma subsampling : 4:2:0
    Bit depth : 8 bits
    Compression mode : Lossy
    Bits/(Pixel*Frame) : 1.671
    Stream size : 556 KiB (0%)
    Title : Chapter Images
    Language : English
    Default : No
    Encoded date : UTC 2016-05-25 11:51:26
    Tagged date : UTC 2016-05-25 11:51:26
    Menu For : 1
    Audio #1
    ID : 2
    Format : AAC
    Format/Info : Advanced Audio Codec
    Format profile : LC
    Codec ID : 40
    Duration : 1h 47mn
    Bit rate mode : Variable
    Bit rate : 157 Kbps
    Maximum bit rate : 238 Kbps
    Channel(s) : 2 channels
    Channel positions : Front: L R
    Sampling rate : 48.0 KHz
    Frame rate : 46.875 fps (1024 spf)
    Compression mode : Lossy
    Stream size : 121 MiB (2%)
    Title : Russian Stereo
    Language : Russian
    Default : Yes
    Alternate group : 1
    Encoded date : UTC 2016-05-25 11:50:54
    Tagged date : UTC 2016-05-25 11:51:18
    Fallback From : 4
    Menus : 8
    Audio #2
    ID : 3
    Format : AAC
    Format/Info : Advanced Audio Codec
    Format profile : LC
    Codec ID : 40
    Duration : 1h 47mn
    Bit rate mode : Variable
    Bit rate : 158 Kbps
    Maximum bit rate : 236 Kbps
    Channel(s) : 2 channels
    Channel positions : Front: L R
    Sampling rate : 48.0 KHz
    Frame rate : 46.875 fps (1024 spf)
    Compression mode : Lossy
    Stream size : 122 MiB (2%)
    Title : English Stereo
    Language : English
    Default : No
    Alternate group : 1
    Encoded date : UTC 2016-05-25 11:50:54
    Tagged date : UTC 2016-05-25 11:51:15
    Fallback From : 5
    Subtitles : 6,7
    Audio #3
    ID : 4
    Format : AC-3
    Format/Info : Audio Coding 3
    Mode extension : CM (complete main)
    Format settings, Endianness : Big
    Codec ID : ac-3
    Duration : 1h 47mn
    Bit rate mode : Constant
    Bit rate : 640 Kbps
    Channel(s) : 6 channels
    Channel positions : Front: L C R, Side: L R, LFE
    Sampling rate : 48.0 KHz
    Frame rate : 31.250 fps (1536 spf)
    Bit depth : 16 bits
    Compression mode : Lossy
    Stream size : 492 MiB (7%)
    Title : Russian DD 5.1
    Language : Russian
    Default : Inherited From: 2
    Alternate group : 1
    Encoded date : UTC 2016-05-25 11:50:54
    Tagged date : UTC 2016-05-25 11:51:00
    Fallback To : 2
    Audio #4
    ID : 5
    Format : AC-3
    Format/Info : Audio Coding 3
    Mode extension : CM (complete main)
    Format settings, Endianness : Big
    Codec ID : ac-3
    Duration : 1h 47mn
    Bit rate mode : Constant
    Bit rate : 640 Kbps
    Channel(s) : 6 channels
    Channel positions : Front: L C R, Side: L R, LFE
    Sampling rate : 48.0 KHz
    Frame rate : 31.250 fps (1536 spf)
    Bit depth : 16 bits
    Compression mode : Lossy
    Stream size : 492 MiB (7%)
    Title : English DD 5.1
    Language : English
    Default : No
    Alternate group : 1
    Encoded date : UTC 2016-05-25 11:50:54
    Tagged date : UTC 2016-05-25 11:51:00
    Fallback To : 3
    Subtitles : 6,7
    Text #1
    ID : 6
    Format : Timed Text
    Muxing mode : sbtl
    Codec ID : tx3g
    Duration : 28mn 55s
    Bit rate mode : Variable
    Bit rate : 1 bps
    Stream size : 113 Bytes (0%)
    Title : English forced
    Language : English
    Default : Yes
    Forced : Yes
    Alternate group : 2
    Encoded date : UTC 2016-05-25 11:50:54
    Tagged date : UTC 2016-05-25 11:50:54
    Subtitles For : 3,5
    Full Alternative : 7
    Text #2
    ID : 7
    Format : Timed Text
    Muxing mode : sbtl
    Codec ID : tx3g
    Duration : 1h 47mn
    Bit rate mode : Variable
    Bit rate : 67 bps
    Stream size : 52.6 KiB (0%)
    Title : English full
    Language : English
    Default : No
    Forced : No
    Alternate group : 2
    Encoded date : UTC 2016-05-25 11:50:54
    Tagged date : UTC 2016-05-25 11:50:54
    Subtitles For : 3,5
    Forced Alternative : 6
    Menu #1
    00:00:00.000 : Chapter 1
    00:06:40.734 : Chapter 2
    00:11:50.168 : Chapter 3
    00:17:59.954 : Chapter 4
    00:24:06.070 : Chapter 5
    00:31:52.786 : Chapter 6
    00:37:43.219 : Chapter 7
    00:44:21.993 : Chapter 8
    00:52:06.248 : Chapter 9
    00:59:28.398 : Chapter 10
    01:05:45.275 : Chapter 11
    01:11:16.898 : Chapter 12
    01:18:40.215 : Chapter 13
    01:25:03.015 : Chapter 14
    01:30:17.746 : Chapter 15
    01:35:49.494 : Chapter 16
    Menu #2
    ID : 8
    Codec ID : text
    Duration : 1h 47mn
    Language : English
    Encoded date : UTC 2016-05-25 11:51:18
    Tagged date : UTC 2016-05-25 11:51:18
    Menu For : 2,1
    00:00:00.000 : Chapter 1
    00:06:40.734 : Chapter 2
    00:11:50.168 : Chapter 3
    00:17:59.954 : Chapter 4
    00:24:06.070 : Chapter 5
    00:31:52.786 : Chapter 6
    00:37:43.219 : Chapter 7
    00:44:21.993 : Chapter 8
    00:52:06.248 : Chapter 9
    00:59:28.398 : Chapter 10
    01:05:45.275 : Chapter 11
    01:11:16.898 : Chapter 12
    01:18:40.215 : Chapter 13
    01:25:03.015 : Chapter 14
    01:30:17.746 : Chapter 15
    01:35:49.494 : Chapter 16
    Bit rate mode : VBR

    x264 лог

    x264 [info]: frame I:1067  Avg QP:13.94  size:235227
    x264 [info]: frame P:39347 Avg QP:16.04  size: 79115
    x264 [info]: frame B:114290 Avg QP:17.50  size: 26925
    x264 [info]: consecutive B-frames:  3.1%  6.2%  6.7% 44.8% 11.5% 15.9%  5.6%  5.8%  0.2%  0.0%  0.0%  0.1%  0.0%  0.0%  0.0%  0.0%  0.0%
    x264 [info]: mb I  I16..4: 13.9% 62.7% 23.4%
    x264 [info]: mb P  I16..4:  2.3% 14.0%  1.5%  P16..4: 40.8% 21.8% 15.7%  1.0%  0.4%    skip: 2.6%
    x264 [info]: mb B  I16..4:  0.1%  1.2%  0.1%  B16..8: 42.8% 12.5%  3.1%  direct: 7.0%  skip:33.1%  L0:43.8% L1:43.3% BI:12.9%
    x264 [info]: 8x8 transform intra:77.9% inter:45.0%
    x264 [info]: direct mvs  spatial:99.1% temporal:0.9%
    x264 [info]: coded y,uvDC,uvAC intra: 88.2% 85.7% 74.2% inter: 29.7% 30.0% 16.7%
    x264 [info]: i16 v,h,dc,p: 23% 10% 23% 44%
    x264 [info]: i8 v,h,dc,ddl,ddr,vr,hd,vl,hu: 10%  8% 16% 10% 12% 12% 11% 11% 12%
    x264 [info]: i4 v,h,dc,ddl,ddr,vr,hd,vl,hu: 11%  8%  7%  9% 14% 14% 13% 11% 13%
    x264 [info]: i8c dc,h,v,p: 53% 17% 15% 15%
    x264 [info]: Weighted P-Frames: Y:4.8% UV:2.7%
    x264 [info]: ref P L0: 55.2%  8.5% 24.8% 10.4%  1.1%  0.0%
    x264 [info]: ref B L0: 86.8% 10.9%  2.3%
    x264 [info]: ref B L1: 93.8%  6.2%
    x264 [info]: kb/s:7985.99

    Скриншоты

    -

    Релиз подготовлен для просмотра на Apple TV, iPad, iPhone, iPod Touch.
    Для просмотра данного релиза на компьютере с ОС Windows рекомендуется использовать VLC media player
    Скачать .torrent

    Скачать торрент-файл бесплатно и на максимальной скорости!

    Как скачивать? · Что такое торрент? · Рейтинг и ограничения

    !ВНИМАНИЕ!
    Сайт не распространяет и не хранит электронные версии произведений, а занимается лишь лишь предоставлением доступа к создаваемому пользователями каталогу ссылок на торрент-файлы, которые содержат только списки хеш-сумм, убедительная просьба с жалобами обращаться напрямую к пользователю. Файлы для обмена на трекере предоставлены пользователями сайта, и администрация не несёт ответственности за их содержание. Просьба не заливать файлы, защищенные авторскими правами, а также файлы нелегального содержания!


    _________________
    [Профиль] [ЛС]
    Показать сообщения:    
    Ответить на тему

    Текущее время: Сегодня, в 16:24

    Часовой пояс: GMT + 2



    Вы не можете начинать темы
    Вы не можете отвечать на сообщения
    Вы не можете редактировать свои сообщения
    Вы не можете удалять свои сообщения
    Вы не можете голосовать в опросах
    Вы не можете прикреплять файлы к сообщениям
    Вы не можете скачивать файлы